×

¿Problemas para descargar con Mozilla, EDGE? Deshabilita la opción "Abrir vinculos en una pestaña nueva" tal como lo muestra ésta imagen.

Muerte en el Nilo (2022) REMUX 1080p Latino

606 vistas

Información de Muerte en el Nilo (2022) REMUX 1080p Latino

Datos de la película

  • Calidad: Full 1080p
  • Audio: Español Latino AC3 5.1 BLURAY - Ingles DTS-HD Master 7.1 BLURAY
  • Subtitulos: Español Latino PGS - Ingles PGS
  • Resolución: 1920x1080p
  • Formato: MKV
  • Codec: H.264
  • Encoder: Melkor
  • Mediainfo: Clic para Mostrar Datos Ver
  • Muerte En El Nilo (2022) REMUX 1080p Latino.mkv
    Format                      : Matroska
    Format version              : Version 4
    File size                   : 31.5 GiB
    Duration                    : 2 h 6 min
    Overall bit rate mode       : Variable
    Overall bit rate            : 35.5 Mb/s
    Movie name                  : Death On The Nile (2022) CinemaniaHDD.Net
    Encoded date                : UTC 2022-03-29 17:07:57
    Writing application         : mkvmerge v56.1.0 ('My Friend') 64-bit
    Writing library             : libebml v1.4.2 + libmatroska v1.6.4
    Attachments                 : CINEMANIAHD.png

    Video
    ID                          : 1
    Format                      : AVC
    Format/Info                 : Advanced Video Codec
    Format profile              : High@L4.1
    Format settings             : CABAC / 4 Ref Frames
    Format settings, CABAC      : Yes
    Format settings, Reference  : 4 frames
    Codec ID                    : V_MPEG4/ISO/AVC
    Duration                    : 2 h 6 min
    Bit rate mode               : Variable
    Bit rate                    : 30.3 Mb/s
    Maximum bit rate            : 36.0 Mb/s
    Width                       : 1 920 pixels
    Height                      : 1 080 pixels
    Display aspect ratio        : 16:9
    Frame rate mode             : Constant
    Frame rate                  : 23.976 (24000/1001) FPS
    Color space                 : YUV
    Chroma subsampling          : 4:2:0
    Bit depth                   : 8 bits
    Scan type                   : Progressive
    Bits/(Pixel*Frame)          : 0.610
    Stream size                 : 26.9 GiB (85%)
    Title                       : REMUX HD1080p [CinemaniaHDD]
    Default                     : Yes
    Forced                      : Yes

    Audio #1
    ID                          : 2
    Format                      : AC-3
    Format/Info                 : Audio Coding 3
    Commercial name             : Dolby Digital
    Codec ID                    : A_AC3
    Duration                    : 2 h 6 min
    Bit rate mode               : Constant
    Bit rate                    : 640 kb/s
    Channel(s)                  : 6 channels
    Channel layout              : L R C LFE Ls Rs
    Sampling rate               : 48.0 kHz
    Frame rate                  : 31.250 FPS (1536 SPF)
    Compression mode            : Lossy
    Stream size                 : 581 MiB (2%)
    Title                       : Español Latino [CinemaniaHDD]
    Language                    : Spanish
    Service kind                : Complete Main
    Default                     : Yes
    Forced                      : Yes

    Audio #2
    ID                          : 3
    Format                      : DTS XLL
    Format/Info                 : Digital Theater Systems
    Commercial name             : DTS-HD Master Audio
    Codec ID                    : A_DTS
    Duration                    : 2 h 6 min
    Bit rate mode               : Variable
    Bit rate                    : 4 539 kb/s
    Channel(s)                  : 8 channels
    Channel layout              : C L R LFE Lb Rb Lss Rss
    Sampling rate               : 48.0 kHz
    Frame rate                  : 93.750 FPS (512 SPF)
    Bit depth                   : 24 bits
    Compression mode            : Lossless
    Stream size                 : 4.02 GiB (13%)
    Title                       : Ingles [CinemaniaHDD]
    Language                    : English
    Default                     : No
    Forced                      : No

    Text #1
    ID                          : 4
    Format                      : PGS
    Muxing mode                 : zlib
    Codec ID                    : S_HDMV/PGS
    Codec ID/Info               : Picture based subtitle format used on BDs/HD-DVDs
    Duration                    : 1 h 56 min
    Bit rate                    : 1 009 b/s
    Count of elements           : 94
    Stream size                 : 865 KiB (0%)
    Title                       : Forzados-PGS [CinemaniaHDD]
    Language                    : Spanish
    Default                     : No
    Forced                      : No

    Text #2
    ID                          : 5
    Format                      : PGS
    Muxing mode                 : zlib
    Codec ID                    : S_HDMV/PGS
    Codec ID/Info               : Picture based subtitle format used on BDs/HD-DVDs
    Duration                    : 1 h 58 min
    Bit rate                    : 43.2 kb/s
    Count of elements           : 3572
    Stream size                 : 36.8 MiB (0%)
    Title                       : Español-PGS [CinemaniaHDD]
    Language                    : Spanish
    Default                     : No
    Forced                      : No

    Text #3
    ID                          : 6
    Format                      : PGS
    Muxing mode                 : zlib
    Codec ID                    : S_HDMV/PGS
    Codec ID/Info               : Picture based subtitle format used on BDs/HD-DVDs
    Duration                    : 1 h 58 min
    Bit rate                    : 50.0 kb/s
    Count of elements           : 4110
    Stream size                 : 42.6 MiB (0%)
    Title                       : Ingles-PGS [CinemaniaHDD]
    Language                    : English
    Default                     : No
    Forced                      : No

    Text #4
    ID                          : 7
    Format                      : UTF-8
    Codec ID                    : S_TEXT/UTF8
    Codec ID/Info               : UTF-8 Plain Text
    Duration                    : 1 h 56 min
    Bit rate                    : 1 b/s
    Count of elements           : 47
    Stream size                 : 1.34 KiB (0%)
    Title                       : Forzados-SRT [CinemaniaHDD]
    Language                    : Spanish
    Default                     : Yes
    Forced                      : Yes

    Text #5
    ID                          : 8
    Format                      : UTF-8
    Codec ID                    : S_TEXT/UTF8
    Codec ID/Info               : UTF-8 Plain Text
    Duration                    : 1 h 58 min
    Bit rate                    : 76 b/s
    Count of elements           : 1848
    Stream size                 : 66.5 KiB (0%)
    Title                       : Español-SRT [CinemaniaHDD]
    Language                    : Spanish
    Default                     : No
    Forced                      : No

    Menu
    00:00:00.000                : :Chapter 1
    00:07:16.269                : :Chapter 2
    00:16:02.170                : :Chapter 3
    00:18:49.879                : :Chapter 4
    00:19:45.559                : :Chapter 5
    00:26:59.243                : :Chapter 6
    00:29:32.312                : :Chapter 7
    00:32:49.217                : :Chapter 8
    00:37:23.032                : :Chapter 9
    00:39:09.556                : :Chapter 10
    00:44:45.600                : :Chapter 11
    00:48:15.434                : :Chapter 12
    00:53:57.317                : :Chapter 13
    00:58:43.979                : :Chapter 14
    01:03:51.953                : :Chapter 15
    01:09:06.809                : :Chapter 16
    01:12:42.066                : :Chapter 17
    01:15:27.523                : :Chapter 18
    01:17:52.126                : :Chapter 19
    01:23:36.887                : :Chapter 20
    01:27:42.591                : :Chapter 21
    01:31:19.724                : :Chapter 22
    01:35:35.563                : :Chapter 23
    01:43:00.925                : :Chapter 24
    01:54:49.299                : :Chapter 25
    01:59:52.018                : :Chapter 26

  • Peso: 31.5 GiB

Sinopsis

Descargar Muerte en el Nilo (2022) REMUX 1080p Latino. Vuelven las pesquisas del célebre detective Hércules Poirot. Esta vez, durante un viaje en crucero por el Nilo, Poirot deberá investigar el misterioso asesinato de una joven heredera sin explicación aparente. Esta secuela de Asesinato en el Orient Express (2017) es la adaptación de la novela Muerte en el Nilo (1937) de Agatha Christie.

Nota: Disponible Solo Para VIP!!

Ficha técnica

Video trailer de la película

Enlaces de descarga

Rip de Bluray

Descargar Muerte en el Nilo (2022) REMUX 1080p Latino


Aportes de DPeliculasHDmega la pass es:dpeliculashdmega.org Aportes de CinemaniaHD la pass es:cinemaniahdd.com
Guardado en : Crimen , Drama , Misterio , Remux

Películas relacionadas

  • Blonde (2022) NF WEB-DL 1080p Latino

    Blonde (2022) NF WEB-DL 1080p Latino

    2022
    Blonde (2022) NF WEB-DL 1080p Latino

    2h 46m 2022

    Descargar Blonde (2022) NF WEB-DL 1080p Latino. Basada en el bestseller de la cinco veces finalista al...

    Director: Kristin Bree Calabrese

    Género: Drama

    Actores: Xavier Samuel

  • Borrego: Sal Del Camino (2022) HD 1080p Latino

    Borrego: Sal Del Camino (2022) HD 1080p Latino

    2022
    Borrego: Sal Del Camino (2022) HD 1080p Latino

    1h 42m 2022

    Descargar Borrego: Sal Del Camino (2022) HD 1080p Latino. Una joven botánica se traslada a un pequeño...

    Director: Jesse Harris

    Género: Crimen

    Actores: Olivia Trujillo

  • Borrego: Sal Del Camino (2022) REMUX 1080p Latino

    Borrego: Sal Del Camino (2022) REMUX 1080p Latino

    2022
    Borrego: Sal Del Camino (2022) REMUX 1080p Latino

    1h 42m 2022

    Descargar Borrego: Sal Del Camino (2022) REMUX 1080p Latino. Una joven botánica se traslada a un pequeño...

    Director: Jesse Harris

    Género: Crimen

    Actores: Olivia Trujillo

  • Infiniti (2022) Primera Temporada WEB-DL 1080p Latino

    Infiniti (2022) Primera Temporada WEB-DL 1080p Latino

    2022
    Infiniti (2022) Primera Temporada WEB-DL 1080p Latino

    0h 52m 2022

    La ISS, la Estación Espacial Internacional se ha quedado en silencio. La tripulación está en peligro....

    Director: Stéphane Pannetier

    Género: Drama

    Actores: Vlad Ivanov

descargar Muerte en el Nilo (2022) REMUX 1080p Latino Full 1080p 1080p gratis, Muerte en el Nilo (2022) REMUX 1080p Latino Full 1080p mega 1 link, Muerte en el Nilo (2022) REMUX 1080p Latino Full 1080p pelicula completa, descargar Muerte en el Nilo (2022) REMUX 1080p Latino Full 1080p gratis en mega.

Muerte en el Nilo (2022) REMUX 1080p Latino pelicula full hd, Muerte en el Nilo (2022) REMUX 1080p Latino mega latino, Muerte en el Nilo (2022) REMUX 1080p Latino 4k latino, Muerte en el Nilo (2022) REMUX 1080p Latino pelicula completa, Muerte en el Nilo (2022) REMUX 1080p Latino descargar gratis, descargar Muerte en el Nilo (2022) REMUX 1080p Latino pelicula latino, Muerte en el Nilo (2022) REMUX 1080p Latino 1 link mega, Muerte en el Nilo (2022) REMUX 1080p Latino 1 link google drive, Muerte en el Nilo (2022) REMUX 1080p Latino hd 1080p latino.
Comentarios 0