×

¿Problemas para descargar con Mozilla, EDGE? Deshabilita la opción "Abrir vinculos en una pestaña nueva" tal como lo muestra ésta imagen.

Muerte en el Nilo (2022) HD 1080p Latino

1.275 vistas

Información de Muerte en el Nilo (2022) HD 1080p Latino

Datos de la película

  • Calidad: 1080p
  • Audio: Español Latino AC3 5.1 BLURAY - Ingles AC3 5.1 BLURAY
  • Subtitulos: Español Latino SRT- FORZADOS SRT
  • Resolución: 1920x804p
  • Formato: MKV
  • Codec: H.264
  • Encoder: Melkor
  • Mediainfo: Clic para Mostrar Datos Ver
  • Muerte En El Nilo (2022) HD1080p Latino.mkv
    Format                      : Matroska
    Format version              : Version 4
    File size                   : 4.21 GiB
    Duration                    : 2 h 6 min
    Overall bit rate            : 4 753 kb/s
    Movie name                  : Death On The Nile (2022) CinemaniaHDD.Net
    Encoded date                : UTC 2022-03-29 06:53:38
    Writing application         : mkvmerge v56.1.0 ('My Friend') 64-bit
    Writing library             : libebml v1.4.2 + libmatroska v1.6.4
    Attachments                 : CINEMANIAHD.png

    Video
    ID                          : 1
    Format                      : AVC
    Format/Info                 : Advanced Video Codec
    Format profile              : High@L4.1
    Format settings             : CABAC / 5 Ref Frames
    Format settings, CABAC      : Yes
    Format settings, Reference  : 5 frames
    Codec ID                    : V_MPEG4/ISO/AVC
    Duration                    : 2 h 6 min
    Bit rate                    : 3 662 kb/s
    Width                       : 1 920 pixels
    Height                      : 804 pixels
    Display aspect ratio        : 2.40:1
    Frame rate mode             : Constant
    Frame rate                  : 23.976 (24000/1001) FPS
    Color space                 : YUV
    Chroma subsampling          : 4:2:0
    Bit depth                   : 8 bits
    Scan type                   : Progressive
    Bits/(Pixel*Frame)          : 0.099
    Stream size                 : 3.25 GiB (77%)
    Title                       : HD1080p [CinemaniaHDD]
    Writing library             : x264 core 163 r3059 b684ebe0
    Encoding settings           : cabac=1 / ref=5 / deblock=1:-1:-1 / analyse=0x3:0x133 / me=umh / subme=9 / psy=1 / psy_rd=1.00:0.15 / mixed_ref=1 / me_range=16 / chroma_me=1 / trellis=2 / 8x8dct=1 / cqm=0 / deadzone=21,11 / fast_pskip=1 / chroma_qp_offset=-3 / threads=24 / lookahead_threads=2 / sliced_threads=0 / nr=0 / decimate=1 / interlaced=0 / bluray_compat=0 / constrained_intra=0 / bframes=3 / b_pyramid=2 / b_adapt=2 / b_bias=0 / direct=3 / weightb=1 / open_gop=0 / weightp=2 / keyint=240 / keyint_min=24 / scenecut=40 / intra_refresh=0 / rc_lookahead=60 / rc=crf / mbtree=1 / crf=21.5 / qcomp=0.60 / qpmin=0 / qpmax=69 / qpstep=4 / vbv_maxrate=62500 / vbv_bufsize=78125 / crf_max=0.0 / nal_hrd=none / filler=0 / ip_ratio=1.40 / aq=1:1.00
    Default                     : Yes
    Forced                      : Yes
    Color range                 : Limited
    Color primaries             : BT.709
    Transfer characteristics    : BT.709
    Matrix coefficients         : BT.709

    Audio #1
    ID                          : 2
    Format                      : AC-3
    Format/Info                 : Audio Coding 3
    Commercial name             : Dolby Digital
    Codec ID                    : A_AC3
    Duration                    : 2 h 6 min
    Bit rate mode               : Constant
    Bit rate                    : 640 kb/s
    Channel(s)                  : 6 channels
    Channel layout              : L R C LFE Ls Rs
    Sampling rate               : 48.0 kHz
    Frame rate                  : 31.250 FPS (1536 SPF)
    Compression mode            : Lossy
    Delay relative to video     : -5 ms
    Stream size                 : 581 MiB (13%)
    Title                       : Español Latino [CinemaniaHDD]
    Language                    : Spanish
    Service kind                : Complete Main
    Default                     : Yes
    Forced                      : Yes

    Audio #2
    ID                          : 3
    Format                      : AC-3
    Format/Info                 : Audio Coding 3
    Commercial name             : Dolby Digital
    Codec ID                    : A_AC3
    Duration                    : 2 h 6 min
    Bit rate mode               : Constant
    Bit rate                    : 448 kb/s
    Channel(s)                  : 6 channels
    Channel layout              : L R C LFE Ls Rs
    Sampling rate               : 48.0 kHz
    Frame rate                  : 31.250 FPS (1536 SPF)
    Compression mode            : Lossy
    Delay relative to video     : -5 ms
    Stream size                 : 407 MiB (9%)
    Title                       : Ingles [CinemaniaHDD]
    Language                    : English
    Service kind                : Complete Main
    Default                     : No
    Forced                      : No

    Text #1
    ID                          : 4
    Format                      : UTF-8
    Codec ID                    : S_TEXT/UTF8
    Codec ID/Info               : UTF-8 Plain Text
    Duration                    : 1 h 56 min
    Bit rate                    : 1 b/s
    Count of elements           : 47
    Stream size                 : 1.34 KiB (0%)
    Title                       : Forzados-SRT [CinemaniaHDD]
    Language                    : Spanish
    Default                     : Yes
    Forced                      : Yes

    Text #2
    ID                          : 5
    Format                      : UTF-8
    Codec ID                    : S_TEXT/UTF8
    Codec ID/Info               : UTF-8 Plain Text
    Duration                    : 1 h 58 min
    Bit rate                    : 76 b/s
    Count of elements           : 1848
    Stream size                 : 66.5 KiB (0%)
    Title                       : Español-SRT [CinemaniaHDD]
    Language                    : Spanish
    Default                     : No
    Forced                      : No

    Text #3
    ID                          : 6
    Format                      : UTF-8
    Codec ID                    : S_TEXT/UTF8
    Codec ID/Info               : UTF-8 Plain Text
    Duration                    : 1 h 58 min
    Bit rate                    : 67 b/s
    Count of elements           : 1841
    Stream size                 : 58.8 KiB (0%)
    Title                       : Ingles-SRT [CinemaniaHDD]
    Language                    : English
    Default                     : No
    Forced                      : No

    Menu
    00:00:00.000                : :Chapter 1
    00:07:16.269                : :Chapter 2
    00:16:02.170                : :Chapter 3
    00:18:49.879                : :Chapter 4
    00:19:45.559                : :Chapter 5
    00:26:59.243                : :Chapter 6
    00:29:32.312                : :Chapter 7
    00:32:49.217                : :Chapter 8
    00:37:23.032                : :Chapter 9
    00:39:09.556                : :Chapter 10
    00:44:45.600                : :Chapter 11
    00:48:15.434                : :Chapter 12
    00:53:57.317                : :Chapter 13
    00:58:43.979                : :Chapter 14
    01:03:51.953                : :Chapter 15
    01:09:06.809                : :Chapter 16
    01:12:42.066                : :Chapter 17
    01:15:27.523                : :Chapter 18
    01:17:52.126                : :Chapter 19
    01:23:36.887                : :Chapter 20
    01:27:42.591                : :Chapter 21
    01:31:19.724                : :Chapter 22
    01:35:35.563                : :Chapter 23
    01:43:00.925                : :Chapter 24
    01:54:49.299                : :Chapter 25
    01:59:52.018                : :Chapter 26

  • Peso: 4.21 GiB

Sinopsis

Descargar Muerte en el Nilo (2022) HD 1080p Latino. Vuelven las pesquisas del célebre detective Hércules Poirot. Esta vez, durante un viaje en crucero por el Nilo, Poirot deberá investigar el misterioso asesinato de una joven heredera sin explicación aparente. Esta secuela de Asesinato en el Orient Express (2017) es la adaptación de la novela Muerte en el Nilo (1937) de Agatha Christie.

Ficha técnica

Video trailer de la película

Enlaces de descarga

Rip de Bluray

Descargar Muerte en el Nilo (2022) HD 1080p Latino




Aportes de DPeliculasHDmega la pass es:dpeliculashdmega.org Aportes de CinemaniaHD la pass es:cinemaniahdd.com
Guardado en : Crimen , Drama , HD 1080p , Misterio

Películas relacionadas

descargar Muerte en el Nilo (2022) HD 1080p Latino 1080p 1080p gratis, Muerte en el Nilo (2022) HD 1080p Latino 1080p mega 1 link, Muerte en el Nilo (2022) HD 1080p Latino 1080p pelicula completa, descargar Muerte en el Nilo (2022) HD 1080p Latino 1080p gratis en mega.

Muerte en el Nilo (2022) HD 1080p Latino pelicula full hd, Muerte en el Nilo (2022) HD 1080p Latino mega latino, Muerte en el Nilo (2022) HD 1080p Latino 4k latino, Muerte en el Nilo (2022) HD 1080p Latino pelicula completa, Muerte en el Nilo (2022) HD 1080p Latino descargar gratis, descargar Muerte en el Nilo (2022) HD 1080p Latino pelicula latino, Muerte en el Nilo (2022) HD 1080p Latino 1 link mega, Muerte en el Nilo (2022) HD 1080p Latino 1 link google drive, Muerte en el Nilo (2022) HD 1080p Latino hd 1080p latino.
Comentarios 0