×

¿Problemas para descargar con Mozilla, EDGE? Deshabilita la opción "Abrir vinculos en una pestaña nueva" tal como lo muestra ésta imagen.

Mucho mucho amor: La leyenda de Walter Mercado Mucho (2020) NF WEB-DL 1080p Latino

232 vistas

Información de Mucho mucho amor: La leyenda de Walter Mercado Mucho (2020) NF WEB-DL 1080p Latino

Datos de la película

  • Calidad: WEBDL
  • Audio: Español Latino AC3 5.1 Netflix - Ingles AC3 5.1 Netflix
  • Subtitulos: Español Latino SRT- FORZADOS SRT
  • Resolución: 1920x1080
  • Formato: MKV
  • Codec: H.264
  • Encoder: cinemaniahdd
  • Mediainfo: Clic para Mostrar Datos Ver
  • Mucho mucho amor La leyenda de Walter Mercado (2020) NF WEB-DL 1080p Latino.mkv
    Format                      : Matroska
    Format version              : Version 4
    File size                   : 4.62 GiB
    Duration                    : 1 h 36 min
    Overall bit rate mode       : Variable
    Overall bit rate            : 6 860 kb/s
    Movie name                  : Mucho mucho amor La leyenda de Walter Mercado - CinemaniaHDD.Net
    Encoded date                : UTC 2020-07-08 22:25:03
    Writing application         : mkvmerge v30.1.0 ('Forever And More') 64-bit
    Writing library             : libebml v1.3.6 + libmatroska v1.4.9 / Lavf58.28.101

    Video
    ID                          : 1
    Format                      : AVC
    Format/Info                 : Advanced Video Codec
    Format profile              : Main@L4
    Format settings             : CABAC / 3 Ref Frames
    Format settings, CABAC      : Yes
    Format settings, Reference  : 3 frames
    Codec ID                    : V_MPEG4/ISO/AVC
    Duration                    : 1 h 36 min
    Bit rate mode               : Variable
    Bit rate                    : 6 190 kb/s
    Maximum bit rate            : 9 285 kb/s
    Width                       : 1 920 pixels
    Height                      : 1 080 pixels
    Display aspect ratio        : 16:9
    Frame rate mode             : Constant
    Frame rate                  : 23.976 (24000/1001) FPS
    Color space                 : YUV
    Chroma subsampling          : 4:2:0
    Bit depth                   : 8 bits
    Scan type                   : Progressive
    Bits/(Pixel*Frame)          : 0.125
    Stream size                 : 4.10 GiB (89%)
    Title                       : CinemaniaHDD.Net
    Writing library             : x264 core 148 r2721 6d200cf
    Encoding settings           : cabac=1 / ref=3 / deblock=1:0:0 / analyse=0x1:0x111 / me=umh / subme=10 / psy=1 / psy_rd=1.00:0.00 / mixed_ref=1 / me_range=24 / chroma_me=1 / trellis=2 / 8x8dct=0 / cqm=0 / deadzone=21,11 / fast_pskip=1 / chroma_qp_offset=-2 / threads=8 / lookahead_threads=1 / sliced_threads=0 / nr=0 / decimate=1 / interlaced=0 / bluray_compat=0 / stitchable=1 / constrained_intra=0 / bframes=2 / b_pyramid=0 / b_adapt=2 / b_bias=0 / direct=3 / weightb=1 / open_gop=0 / weightp=2 / keyint=250 / keyint_min=23 / scenecut=0 / intra_refresh=0 / rc_lookahead=48 / rc=2pass / mbtree=1 / bitrate=6190 / ratetol=1.0 / qcomp=0.50 / qpmin=6 / qpmax=51 / qpstep=4 / cplxblur=20.0 / qblur=0.5 / vbv_maxrate=9285 / vbv_bufsize=12380 / nal_hrd=vbr / filler=0 / ip_ratio=1.40 / aq=1:1.00
    Default                     : Yes
    Forced                      : No

    Audio #1
    ID                          : 2
    Format                      : AC-3
    Format/Info                 : Audio Coding 3
    Commercial name             : Dolby Digital
    Codec ID                    : A_AC3
    Duration                    : 1 h 36 min
    Bit rate mode               : Constant
    Bit rate                    : 384 kb/s
    Channel(s)                  : 6 channels
    Channel layout              : L R C LFE Ls Rs
    Sampling rate               : 48.0 kHz
    Frame rate                  : 31.250 FPS (1536 SPF)
    Compression mode            : Lossy
    Stream size                 : 265 MiB (6%)
    Title                       : Español latino [CinemaniaHDD]
    Language                    : Spanish
    Service kind                : Complete Main
    Default                     : Yes
    Forced                      : No

    Audio #2
    ID                          : 3
    Format                      : AC-3
    Format/Info                 : Audio Coding 3
    Commercial name             : Dolby Digital
    Codec ID                    : A_AC3
    Duration                    : 1 h 36 min
    Bit rate mode               : Constant
    Bit rate                    : 384 kb/s
    Channel(s)                  : 6 channels
    Channel layout              : L R C LFE Ls Rs
    Sampling rate               : 48.0 kHz
    Frame rate                  : 31.250 FPS (1536 SPF)
    Compression mode            : Lossy
    Stream size                 : 265 MiB (6%)
    Title                       : Inglés [CinemaniaHDD]
    Language                    : English
    Service kind                : Complete Main
    Default                     : No
    Forced                      : No

  • Peso: 4.62 GiB

Sinopsis

El mítico, adorable y deslumbrante astrólogo Walter Mercado desapareció en el apogeo de su fama. Este emotivo documental revela por qué.

Ficha técnica

Video trailer de la película

Enlaces de descarga

Rip de Bluray

Descargar Mucho mucho amor: La leyenda de Walter Mercado Mucho (2020) NF WEB-DL 1080p Latino




Aportes de DPeliculasHDmega la pass es:dpeliculashdmega.org Aportes de CinemaniaHD la pass es:cinemaniahdd.com
Guardado en : Documental , Netflix

Películas relacionadas

  • Blonde (2022) NF WEB-DL 1080p Latino

    Blonde (2022) NF WEB-DL 1080p Latino

    2022
    Blonde (2022) NF WEB-DL 1080p Latino

    2h 46m 2022

    Descargar Blonde (2022) NF WEB-DL 1080p Latino. Basada en el bestseller de la cinco veces finalista al...

    Director: Kristin Bree Calabrese

    Género: Drama

    Actores: Xavier Samuel

  • Athena (2022) NF WEB-DL 1080p Latino

    Athena (2022) NF WEB-DL 1080p Latino

    2022
    Athena (2022) NF WEB-DL 1080p Latino

    1h 37m 2022

    Descargar Athena (2022) NF WEB-DL 1080p Latino. Horas después de la trágica muerte de su hermano menor...

    Director: Romain Gavras

    Género: Acción

    Actores: Tarek Haddaji

  • Lou (2022) NF WEB-DL 1080p Latino

    Lou (2022) NF WEB-DL 1080p Latino

    2022
    Lou (2022) NF WEB-DL 1080p Latino

    1h 47m 2022

    Descargar Lou (2022) NF WEB-DL 1080p Latino. Una mujer misteriosa y solitaria lucha contra las inclemencias...

    Director: Anna Foerster

    Género: Acción

    Actores: Toby Levins

descargar Mucho mucho amor: La leyenda de Walter Mercado Mucho (2020) NF WEB-DL 1080p Latino WEBDL 1080p gratis, Mucho mucho amor: La leyenda de Walter Mercado Mucho (2020) NF WEB-DL 1080p Latino WEBDL mega 1 link, Mucho mucho amor: La leyenda de Walter Mercado Mucho (2020) NF WEB-DL 1080p Latino WEBDL pelicula completa, descargar Mucho mucho amor: La leyenda de Walter Mercado Mucho (2020) NF WEB-DL 1080p Latino WEBDL gratis en mega.

Mucho mucho amor: La leyenda de Walter Mercado Mucho (2020) NF WEB-DL 1080p Latino pelicula full hd, Mucho mucho amor: La leyenda de Walter Mercado Mucho (2020) NF WEB-DL 1080p Latino mega latino, Mucho mucho amor: La leyenda de Walter Mercado Mucho (2020) NF WEB-DL 1080p Latino 4k latino, Mucho mucho amor: La leyenda de Walter Mercado Mucho (2020) NF WEB-DL 1080p Latino pelicula completa, Mucho mucho amor: La leyenda de Walter Mercado Mucho (2020) NF WEB-DL 1080p Latino descargar gratis, descargar Mucho mucho amor: La leyenda de Walter Mercado Mucho (2020) NF WEB-DL 1080p Latino pelicula latino, Mucho mucho amor: La leyenda de Walter Mercado Mucho (2020) NF WEB-DL 1080p Latino 1 link mega, Mucho mucho amor: La leyenda de Walter Mercado Mucho (2020) NF WEB-DL 1080p Latino 1 link google drive, Mucho mucho amor: La leyenda de Walter Mercado Mucho (2020) NF WEB-DL 1080p Latino hd 1080p latino.
Comentarios 0