×

¿Problemas para descargar con Mozilla, EDGE? Deshabilita la opción "Abrir vinculos en una pestaña nueva" tal como lo muestra ésta imagen.

Muchas Mas Hormigas Entre Las Piernas (2023) NF WEB-DL 1080p Latino

28 vistas

Información de Muchas Mas Hormigas Entre Las Piernas (2023) NF WEB-DL 1080p Latino

Datos de la película

  • Calidad: WEBDL
  • Audio: Se especifica abajo de la Sinopsis
  • Subtitulos: Español Latino SRT- FORZADOS SRT
  • Resolución: 1920x1080p
  • Formato: MKV
  • Codec: H.264
  • Encoder: Melkor
  • Mediainfo: Clic para Mostrar Datos Ver
  • Muchas Mas Hormigas Entre Las Piernas (2023) NF WebDL 1080p Latino.mkv
    Format                      : Matroska
    Format version              : Version 4
    File size                   : 4.91 GiB
    Duration                    : 1 h 43 min
    Overall bit rate mode       : Variable
    Overall bit rate            : 6 820 kb/s
    Movie name                  : Hard Feelings (2023) CinemaniaHDD.Net
    Encoded date                : UTC 2023-05-25 01:27:49
    Writing application         : mkvmerge v56.1.0 ('My Friend') 64-bit
    Writing library             : libebml v1.4.2 + libmatroska v1.6.4
    Site                        : CinemaniaHDD.Net
    Uploader                    : Melkor

    Video
    ID                          : 1
    Format                      : AVC
    Format/Info                 : Advanced Video Codec
    Format profile              : Main@L4
    Format settings             : CABAC / 3 Ref Frames
    Format settings, CABAC      : Yes
    Format settings, Reference  : 3 frames
    Codec ID                    : V_MPEG4/ISO/AVC
    Duration                    : 1 h 43 min
    Bit rate mode               : Variable
    Bit rate                    : 5 000 kb/s
    Maximum bit rate            : 7 500 kb/s
    Width                       : 1 920 pixels
    Height                      : 1 080 pixels
    Display aspect ratio        : 16:9
    Frame rate mode             : Constant
    Frame rate                  : 25.000 FPS
    Color space                 : YUV
    Chroma subsampling          : 4:2:0
    Bit depth                   : 8 bits
    Scan type                   : Progressive
    Bits/(Pixel*Frame)          : 0.096
    Stream size                 : 3.53 GiB (72%)
    Title                       : Web HD1080p [CinemaniaHDD]
    Writing library             : x264 core 148 r2727 7d026e8
    Encoding settings           : cabac=1 / ref=3 / deblock=1:0:0 / analyse=0x1:0x111 / me=umh / subme=10 / psy=1 / psy_rd=1.00:0.00 / mixed_ref=1 / me_range=24 / chroma_me=1 / trellis=2 / 8x8dct=0 / cqm=0 / deadzone=21,11 / fast_pskip=1 / chroma_qp_offset=-2 / threads=6 / lookahead_threads=1 / sliced_threads=0 / nr=0 / decimate=1 / interlaced=0 / bluray_compat=0 / stitchable=1 / constrained_intra=0 / bframes=2 / b_pyramid=0 / b_adapt=2 / b_bias=0 / direct=3 / weightb=1 / open_gop=0 / weightp=2 / keyint=250 / keyint_min=126 / scenecut=0 / intra_refresh=0 / rc_lookahead=50 / rc=2pass / mbtree=1 / bitrate=5000 / ratetol=1.0 / qcomp=0.50 / qpmin=6 / qpmax=51 / qpstep=4 / cplxblur=20.0 / qblur=0.5 / vbv_maxrate=7500 / vbv_bufsize=10000 / nal_hrd=vbr / filler=0 / ip_ratio=1.40 / aq=1:1.00
    Language                    : German
    Default                     : Yes
    Forced                      : Yes

    Audio #1
    ID                          : 2
    Format                      : AC-3
    Format/Info                 : Audio Coding 3
    Commercial name             : Dolby Digital
    Codec ID                    : A_AC3
    Duration                    : 1 h 43 min
    Bit rate mode               : Constant
    Bit rate                    : 640 kb/s
    Channel(s)                  : 6 channels
    Channel layout              : L R C LFE Ls Rs
    Sampling rate               : 48.0 kHz
    Frame rate                  : 31.250 FPS (1536 SPF)
    Compression mode            : Lossy
    Stream size                 : 472 MiB (9%)
    Title                       : Español Latino AC3 [CinemaniaHDD]
    Language                    : Spanish
    Service kind                : Complete Main
    Default                     : Yes
    Forced                      : Yes

    Audio #2
    ID                          : 3
    Format                      : E-AC-3
    Format/Info                 : Enhanced AC-3
    Commercial name             : Dolby Digital Plus
    Codec ID                    : A_EAC3
    Duration                    : 1 h 43 min
    Bit rate mode               : Constant
    Bit rate                    : 640 kb/s
    Channel(s)                  : 6 channels
    Channel layout              : L R C LFE Ls Rs
    Sampling rate               : 48.0 kHz
    Frame rate                  : 31.250 FPS (1536 SPF)
    Compression mode            : Lossy
    Stream size                 : 472 MiB (9%)
    Title                       : Español Latino EAC3 [CinemaniaHDD]
    Language                    : Spanish
    Service kind                : Complete Main
    Default                     : No
    Forced                      : No

    Audio #3
    ID                          : 4
    Format                      : E-AC-3
    Format/Info                 : Enhanced AC-3
    Commercial name             : Dolby Digital Plus
    Codec ID                    : A_EAC3
    Duration                    : 1 h 43 min
    Bit rate mode               : Constant
    Bit rate                    : 640 kb/s
    Channel(s)                  : 6 channels
    Channel layout              : L R C LFE Ls Rs
    Sampling rate               : 48.0 kHz
    Frame rate                  : 31.250 FPS (1536 SPF)
    Compression mode            : Lossy
    Stream size                 : 472 MiB (9%)
    Title                       : Aleman [CinemaniaHDD]
    Language                    : German
    Service kind                : Complete Main
    Default                     : No
    Forced                      : No

    Text #1
    ID                          : 5
    Format                      : UTF-8
    Codec ID                    : S_TEXT/UTF8
    Codec ID/Info               : UTF-8 Plain Text
    Duration                    : 1 h 39 min
    Bit rate                    : 1 b/s
    Count of elements           : 37
    Stream size                 : 959 Bytes (0%)
    Title                       : Forzados-SRT [CinemaniaHDD]
    Language                    : Spanish
    Default                     : Yes
    Forced                      : Yes

    Text #2
    ID                          : 6
    Format                      : UTF-8
    Codec ID                    : S_TEXT/UTF8
    Codec ID/Info               : UTF-8 Plain Text
    Duration                    : 1 h 41 min
    Bit rate                    : 56 b/s
    Count of elements           : 1320
    Stream size                 : 42.0 KiB (0%)
    Title                       : Español-SRT [CinemaniaHDD]
    Language                    : Spanish
    Default                     : No
    Forced                      : No

    Text #3
    ID                          : 7
    Format                      : UTF-8
    Codec ID                    : S_TEXT/UTF8
    Codec ID/Info               : UTF-8 Plain Text
    Duration                    : 1 h 41 min
    Bit rate                    : 65 b/s
    Count of elements           : 1486
    Stream size                 : 48.3 KiB (0%)
    Title                       : Ingles-SRT [CinemaniaHDD]
    Language                    : English
    Default                     : No
    Forced                      : No

    Menu
    00:00:00.000                : Part 01
    01:36:08.450                : Credits

  • Peso: 4.91 GiB

Sinopsis

Descargar Muchas Mas Hormigas Entre Las Piernas (2023) NF WEB-DL 1080p Latino. Dos mejores amigos intentan salir adelante en el instituto mientras se enfrentan a nuevos y vergonzosos impulsos y a sus muy inconvenientes sentimientos el uno por la otra.

Español Latino EAC3 & AC3 5.1 NF – Aleman EAC3 5.1 NF

Ficha técnica

Video trailer de la película

Enlaces de descarga

Rip de Bluray

Descargar Muchas Mas Hormigas Entre Las Piernas (2023) NF WEB-DL 1080p Latino




Aportes de DPeliculasHDmega la pass es:dpeliculashdmega.org Aportes de CinemaniaHD la pass es:cinemaniahdd.com
Guardado en : Comedia , Netflix

Películas relacionadas

  • Medellin (2023) AMZN WEB-DL 1080p Latino

    Medellin (2023) AMZN WEB-DL 1080p Latino

    2023
    Medellin (2023) AMZN WEB-DL 1080p Latino

    0h 0m 2023

    Brahim, un joven youtuber es secuestrado por los narcos en Colombia. Su hermano Réda convence...

    Director: Franck Gastambide

    Género: Acción

    Actores: Vincent Bersoulle

  • Renfield (2023) PLACEBO Full HD 1080p Latino

    Renfield (2023) PLACEBO Full HD 1080p Latino

    2023
    Renfield (2023) PLACEBO Full HD 1080p Latino

    1h 33m 2023

    Descargar Renfield (2023) PLACEBO Full HD 1080p Latino. En este moderno y monstruoso relato sobre el...

    Director: Zack Earl Edwards

    Género: Comedia

    Actores: William Ragsdale

  • Renfield (2023) REMUX 1080p Latino

    Renfield (2023) REMUX 1080p Latino

    2023
    Renfield (2023) REMUX 1080p Latino

    1h 33m 2023

    Descargar Renfield (2023) REMUX 1080p Latino. En este moderno y monstruoso relato sobre el fiel ayudante...

    Director: Zack Earl Edwards

    Género: Comedia

    Actores: William Ragsdale

descargar Muchas Mas Hormigas Entre Las Piernas (2023) NF WEB-DL 1080p Latino WEBDL 1080p gratis, Muchas Mas Hormigas Entre Las Piernas (2023) NF WEB-DL 1080p Latino WEBDL mega 1 link, Muchas Mas Hormigas Entre Las Piernas (2023) NF WEB-DL 1080p Latino WEBDL pelicula completa, descargar Muchas Mas Hormigas Entre Las Piernas (2023) NF WEB-DL 1080p Latino WEBDL gratis en mega.

Muchas Mas Hormigas Entre Las Piernas (2023) NF WEB-DL 1080p Latino pelicula full hd, Muchas Mas Hormigas Entre Las Piernas (2023) NF WEB-DL 1080p Latino mega latino, Muchas Mas Hormigas Entre Las Piernas (2023) NF WEB-DL 1080p Latino 4k latino, Muchas Mas Hormigas Entre Las Piernas (2023) NF WEB-DL 1080p Latino pelicula completa, Muchas Mas Hormigas Entre Las Piernas (2023) NF WEB-DL 1080p Latino descargar gratis, descargar Muchas Mas Hormigas Entre Las Piernas (2023) NF WEB-DL 1080p Latino pelicula latino, Muchas Mas Hormigas Entre Las Piernas (2023) NF WEB-DL 1080p Latino 1 link mega, Muchas Mas Hormigas Entre Las Piernas (2023) NF WEB-DL 1080p Latino 1 link google drive, Muchas Mas Hormigas Entre Las Piernas (2023) NF WEB-DL 1080p Latino hd 1080p latino.
Comentarios 0