×

¿Problemas para descargar con Mozilla, EDGE? Deshabilita la opción "Abrir vinculos en una pestaña nueva" tal como lo muestra ésta imagen.

Mrs. Fletcher (2019) Temporada 1 AMZN WEB-DL 1080p Latino

3.833 vistas

Información de Mrs. Fletcher (2019) Temporada 1 AMZN WEB-DL 1080p Latino

Datos de la película

  • Calidad: WEBDL
  • Audio: Español Latino AC3 2.0 - Ingles AC3 5.1 HBO
  • Subtitulos: Español Latino SRT- FORZADOS SRT
  • Resolución: 1920x1080
  • Formato: MKV
  • Codec: H.264
  • Encoder: cinemaniahdd
  • Mediainfo: Clic para Mostrar Datos Ver
  • Mrs. Fletcher S01E01 AMZN WEB-DL 1080p Latino.mkv
    Format                      : Matroska
    Format version              : Version 4
    File size                   : 1.93 GiB
    Duration                    : 30 min 37 s
    Overall bit rate            : 8 998 kb/s
    Movie name                  : Mrs. Fletcher S01E01 - CinemaniaHDD.Net
    Encoded date                : UTC 2019-10-28 18:41:47
    Writing application         : mkvmerge v38.0.0 ('The Silent Type') 64-bit
    Writing library             : libebml v1.3.9 + libmatroska v1.5.2

    Video
    ID                          : 1
    Format                      : AVC
    Format/Info                 : Advanced Video Codec
    Format profile              : High@L4
    Format settings             : CABAC / 4 Ref Frames
    Format settings, CABAC      : Yes
    Format settings, ReFrames   : 4 frames
    Codec ID                    : V_MPEG4/ISO/AVC
    Duration                    : 30 min 37 s
    Bit rate mode               : Constant
    Bit rate                    : 8 100 kb/s
    Nominal bit rate            : 10 000 kb/s
    Width                       : 1 920 pixels
    Height                      : 1 080 pixels
    Display aspect ratio        : 16:9
    Frame rate mode             : Constant
    Frame rate                  : 23.976 (24000/1001) FPS
    Color space                 : YUV
    Chroma subsampling          : 4:2:0
    Bit depth                   : 8 bits
    Scan type                   : Progressive
    Bits/(Pixel*Frame)          : 0.163
    Stream size                 : 1.73 GiB (90%)
    Title                       : CinemaniaHDD
    Default                     : Yes
    Forced                      : No
    Color range                 : Limited
    Color primaries             : BT.709
    Transfer characteristics    : BT.709
    Matrix coefficients         : BT.709

    Audio #1
    ID                          : 2
    Format                      : AC-3
    Format/Info                 : Audio Coding 3
    Commercial name             : Dolby Digital
    Codec ID                    : A_AC3
    Duration                    : 30 min 37 s
    Bit rate mode               : Constant
    Bit rate                    : 256 kb/s
    Channel(s)                  : 2 channels
    Channel layout              : L R
    Sampling rate               : 48.0 kHz
    Frame rate                  : 31.250 FPS (1536 SPF)
    Bit depth                   : 16 bits
    Compression mode            : Lossy
    Stream size                 : 56.1 MiB (3%)
    Title                       : Español latino [CinemaniaHDD]
    Language                    : Spanish
    Service kind                : Complete Main
    Default                     : Yes
    Forced                      : No

    Audio #2
    ID                          : 3
    Format                      : E-AC-3
    Format/Info                 : Enhanced AC-3
    Commercial name             : Dolby Digital Plus
    Codec ID                    : A_EAC3
    Duration                    : 30 min 37 s
    Bit rate mode               : Constant
    Bit rate                    : 640 kb/s
    Channel(s)                  : 6 channels
    Channel layout              : L R C LFE Ls Rs
    Sampling rate               : 48.0 kHz
    Frame rate                  : 31.250 FPS (1536 SPF)
    Compression mode            : Lossy
    Delay relative to video     : 28 ms
    Stream size                 : 140 MiB (7%)
    Title                       : Inglés [CinemaniaHDD]
    Language                    : English
    Service kind                : Complete Main
    Default                     : No
    Forced                      : No

    Text #1
    ID                          : 4
    Format                      : UTF-8
    Codec ID                    : S_TEXT/UTF8
    Codec ID/Info               : UTF-8 Plain Text
    Duration                    : 1 min 3 s
    Bit rate                    : 31 b/s
    Count of elements           : 9
    Stream size                 : 250 Bytes (0%)
    Title                       : Forzados [CinemaniaHDD]
    Language                    : Spanish
    Default                     : Yes
    Forced                      : Yes

    Text #2
    ID                          : 5
    Format                      : UTF-8
    Codec ID                    : S_TEXT/UTF8
    Codec ID/Info               : UTF-8 Plain Text
    Duration                    : 27 min 37 s
    Bit rate                    : 51 b/s
    Count of elements           : 353
    Stream size                 : 10.5 KiB (0%)
    Title                       : Español latino [CinemaniaHDD]
    Language                    : Spanish
    Default                     : No
    Forced                      : No

    Text #3
    ID                          : 6
    Format                      : UTF-8
    Codec ID                    : S_TEXT/UTF8
    Codec ID/Info               : UTF-8 Plain Text
    Duration                    : 30 min 22 s
    Bit rate                    : 75 b/s
    Count of elements           : 565
    Stream size                 : 16.7 KiB (0%)
    Title                       : Inglés [CinemaniaHDD]
    Language                    : English
    Default                     : No
    Forced                      : No

     

  • Peso: 1.93 GiB C/U

Sinopsis

Comedia provocativa que sigue las experiencias personales y sexuales de la madre soltera Eve Fletcher (Kathryn Hahn) y de su hijo Brendan. Mientras el joven Brendan enfrenta los típicos problemas de un estudiante novato, Eve, sin las restricciones de la maternidad, comienza a explorar su sexualidad y las experiencias eróticas que la eludieron en el pasado.

7 CAPITULOS AGREGADOS

FINAL DE LA TEMPORADA

Ficha técnica

Video trailer de la película

Enlaces de descarga

Rip de Bluray

Descargar Mrs. Fletcher (2019) Temporada 1 AMZN WEB-DL 1080p Latino




Aportes de DPeliculasHDmega la pass es:dpeliculashdmega.org Aportes de CinemaniaHD la pass es:cinemaniahdd.com
Guardado en : Comedia , Drama , Familia , HBO , Series

Películas relacionadas

  • Zola (2020) HD 1080p Latino

    Zola (2020) HD 1080p Latino

    2020
    Zola (2020) HD 1080p Latino

    1h 26m 2020

    Descargar Zola (2020) HD 1080p Latino. Una camarera accede a acompañar a una bailarina exótica, su...

    Director: Sheri Davani

    Género: Comedia

    Actores: Ts Madison

  • Zola (2020) PLACEBO Full HD 1080p Latino

    Zola (2020) PLACEBO Full HD 1080p Latino

    2020
    Zola (2020) PLACEBO Full HD 1080p Latino

    1h 26m 2020

    Descargar Zola (2020) PLACEBO Full HD 1080p Latino. Una camarera accede a acompañar a una bailarina...

    Director: Sheri Davani

    Género: Comedia

    Actores: Ts Madison

  • Zola (2020) REMUX 1080p Latino

    Zola (2020) REMUX 1080p Latino

    2020
    Zola (2020) REMUX 1080p Latino

    1h 26m 2020

    Descargar Zola (2020) REMUX 1080p Latino. Una camarera accede a acompañar a una bailarina exótica,...

    Director: Sheri Davani

    Género: Comedia

    Actores: Ts Madison

descargar Mrs. Fletcher (2019) Temporada 1 AMZN WEB-DL 1080p Latino WEBDL 1080p gratis, Mrs. Fletcher (2019) Temporada 1 AMZN WEB-DL 1080p Latino WEBDL mega 1 link, Mrs. Fletcher (2019) Temporada 1 AMZN WEB-DL 1080p Latino WEBDL serie completa, descargar Mrs. Fletcher (2019) Temporada 1 AMZN WEB-DL 1080p Latino WEBDL gratis en mega.

Mrs. Fletcher (2019) Temporada 1 AMZN WEB-DL 1080p Latino pelicula full hd, Mrs. Fletcher (2019) Temporada 1 AMZN WEB-DL 1080p Latino mega latino, Mrs. Fletcher (2019) Temporada 1 AMZN WEB-DL 1080p Latino 4k latino, Mrs. Fletcher (2019) Temporada 1 AMZN WEB-DL 1080p Latino pelicula completa, Mrs. Fletcher (2019) Temporada 1 AMZN WEB-DL 1080p Latino descargar gratis, descargar Mrs. Fletcher (2019) Temporada 1 AMZN WEB-DL 1080p Latino pelicula latino, Mrs. Fletcher (2019) Temporada 1 AMZN WEB-DL 1080p Latino 1 link mega, Mrs. Fletcher (2019) Temporada 1 AMZN WEB-DL 1080p Latino 1 link google drive, Mrs. Fletcher (2019) Temporada 1 AMZN WEB-DL 1080p Latino hd 1080p latino.
Comentarios 0