×

¿Problemas para descargar con Mozilla, EDGE? Deshabilita la opción "Abrir vinculos en una pestaña nueva" tal como lo muestra ésta imagen.

Mrs Doubtfire (1993) REMUX 1080p Latino – CMHDD

167 vistas

Información de Mrs Doubtfire (1993) REMUX 1080p Latino – CMHDD

Datos de la película

  • Calidad: Full 1080p
  • Audio: Español Latino AC3 2.0 BLURAY - Ingles DTS 5.1 BLURAY
  • Subtitulos: Español Latino PGS
  • Resolución: 1920x1080p
  • Formato: MKV
  • Codec: H.264
  • Encoder: Dracarys
  • Mediainfo: Clic para Mostrar Datos Ver
  • Format                      : Matroska
    Format version              : Version 4
    File size                   : 28.0 GiB
    Duration                    : 2 h 5 min
    Overall bit rate mode       : Variable
    Overall bit rate            : 32.0 Mb/s
    Movie name                  : Mrs Doubtfire (1993) REMUX 1080p Latino - CMHDD
    Encoded date                : UTC 2023-05-31 01:44:08
    Writing application         : mkvmerge v47.0.0 ('Black Flag') 64-bit
    Writing library             : libebml v1.3.10 + libmatroska v1.5.2

    Video
    ID                          : 1
    ID in the original source m : 4113 (0x1011)
    Format                      : AVC
    Format/Info                 : Advanced Video Codec
    Format profile              : High@L4.1
    Format settings             : CABAC / 2 Ref Frames
    Format settings, CABAC      : Yes
    Format settings, Reference  : 2 frames
    Codec ID                    : V_MPEG4/ISO/AVC
    Duration                    : 2 h 5 min
    Bit rate mode               : Variable
    Bit rate                    : 27.9 Mb/s
    Width                       : 1 920 pixels
    Height                      : 1 080 pixels
    Display aspect ratio        : 16:9
    Frame rate mode             : Constant
    Frame rate                  : 23.976 (24000/1001) FPS
    Color space                 : YUV
    Chroma subsampling          : 4:2:0
    Bit depth                   : 8 bits
    Scan type                   : Progressive
    Bits/(Pixel*Frame)          : 0.561
    Stream size                 : 24.4 GiB (87%)
    Default                     : Yes
    Forced                      : No
    Original source medium      : Blu-ray

    Audio #1
    ID                          : 2
    ID in the original source m : 4352 (0x1100)
    Format                      : DTS XLL
    Format/Info                 : Digital Theater Systems
    Commercial name             : DTS-HD Master Audio
    Codec ID                    : A_DTS
    Duration                    : 2 h 5 min
    Bit rate mode               : Variable
    Bit rate                    : 3 418 kb/s
    Channel(s)                  : 6 channels
    Channel layout              : C L R Ls Rs LFE
    Sampling rate               : 48.0 kHz
    Frame rate                  : 93.750 FPS (512 SPF)
    Bit depth                   : 24 bits
    Compression mode            : Lossless
    Stream size                 : 2.99 GiB (11%)
    Language                    : English
    Default                     : No
    Forced                      : No
    Original source medium      : Blu-ray

    Audio #2
    ID                          : 3
    ID in the original source m : 4353 (0x1101)
    Format                      : AC-3
    Format/Info                 : Audio Coding 3
    Commercial name             : Dolby Digital
    Codec ID                    : A_AC3
    Duration                    : 2 h 5 min
    Bit rate mode               : Constant
    Bit rate                    : 448 kb/s
    Channel(s)                  : 6 channels
    Channel layout              : L R C LFE Ls Rs
    Sampling rate               : 48.0 kHz
    Frame rate                  : 31.250 FPS (1536 SPF)
    Compression mode            : Lossy
    Stream size                 : 401 MiB (1%)
    Language                    : English
    Service kind                : Complete Main
    Default                     : No
    Forced                      : No
    Original source medium      : Blu-ray

    Audio #3
    ID                          : 4
    ID in the original source m : 4355 (0x1103)
    Format                      : AC-3
    Format/Info                 : Audio Coding 3
    Commercial name             : Dolby Digital
    Format settings             : Dolby Surround
    Codec ID                    : A_AC3
    Duration                    : 2 h 5 min
    Bit rate mode               : Constant
    Bit rate                    : 224 kb/s
    Channel(s)                  : 2 channels
    Channel layout              : L R
    Sampling rate               : 48.0 kHz
    Frame rate                  : 31.250 FPS (1536 SPF)
    Compression mode            : Lossy
    Stream size                 : 201 MiB (1%)
    Language                    : Spanish
    Service kind                : Complete Main
    Default                     : Yes
    Forced                      : No
    Original source medium      : Blu-ray

    Text #1
    ID                          : 5
    ID in the original source m : 4609 (0x1201)
    Format                      : PGS
    Muxing mode                 : zlib
    Codec ID                    : S_HDMV/PGS
    Codec ID/Info               : Picture based subtitle format used on BDs/HD-DVDs
    Duration                    : 1 h 59 min
    Bit rate                    : 59.2 kb/s
    Frame rate                  : 0.482 FPS
    Count of elements           : 3460
    Stream size                 : 50.7 MiB (0%)
    Language                    : Spanish
    Default                     : No
    Forced                      : No
    Original source medium      : Blu-ray

    Text #2
    ID                          : 6
    ID in the original source m : 4610 (0x1202)
    Format                      : PGS
    Muxing mode                 : zlib
    Codec ID                    : S_HDMV/PGS
    Codec ID/Info               : Picture based subtitle format used on BDs/HD-DVDs
    Duration                    : 1 h 29 min
    Bit rate                    : 417 b/s
    Frame rate                  : 0.003 FPS
    Count of elements           : 16
    Stream size                 : 274 KiB (0%)
    Language                    : Spanish
    Default                     : No
    Forced                      : No
    Original source medium      : Blu-ray

    Menu
    00:00:00.000                : en:Capítulo 01
    00:03:40.762                : en:Capítulo 02
    00:06:20.546                : en:Capítulo 03
    00:07:31.868                : en:Capítulo 04
    00:09:47.628                : en:Capítulo 05
    00:12:16.360                : en:Capítulo 06
    00:14:19.692                : en:Capítulo 07
    00:18:33.862                : en:Capítulo 08
    00:19:02.891                : en:Capítulo 09
    00:21:19.820                : en:Capítulo 10
    00:23:53.265                : en:Capítulo 11
    00:27:16.426                : en:Capítulo 12
    00:29:26.598                : en:Capítulo 13
    00:32:53.054                : en:Capítulo 14
    00:36:25.933                : en:Capítulo 15
    00:43:35.821                : en:Capítulo 16
    00:50:46.126                : en:Capítulo 17
    00:54:28.390                : en:Capítulo 18
    00:59:15.760                : en:Capítulo 19
    01:03:07.867                : en:Capítulo 20
    01:06:26.899                : en:Capítulo 21
    01:09:43.179                : en:Capítulo 22
    01:12:07.448                : en:Capítulo 23
    01:17:14.796                : en:Capítulo 24
    01:22:15.096                : en:Capítulo 25
    01:24:37.572                : en:Capítulo 26
    01:29:29.238                : en:Capítulo 27
    01:34:53.729                : en:Capítulo 28
    01:39:55.823                : en:Capítulo 29
    01:49:42.993                : en:Capítulo 30
    01:56:55.550                : en:Capítulo 31
    02:01:01.754                : en:Capítulo 32

  • Peso: 28.0 GiB

Sinopsis

Willams es padre y esposo. Sus hijos lo consideran un padre maravilloso, pero su mujer está cansada de que se comporte como si también él fuera un niño. Tras un accidentado divorcio, aunque lucha con todas sus fuerzas para conseguir la custodia de los niños, el juez no se la concede. Decide entonces hacerse pasar por una señora mayor para poder ser, al menos, la canguro de sus hijos.

Ficha técnica

Video trailer de la película

Enlaces de descarga

Rip de Bluray

Descargar Mrs Doubtfire (1993) REMUX 1080p Latino – CMHDD


Aportes de DPeliculasHDmega la pass es:dpeliculashdmega.org Aportes de CinemaniaHD la pass es:cinemaniahdd.com Aportes recientes:cinemaniahdd.net
Guardado en : Comedia , Drama , Familia

Películas relacionadas

  • Fear (2023) AMZN WEB-DL 1080p Latino

    Fear (2023) AMZN WEB-DL 1080p Latino

    2023
    Fear (2023) AMZN WEB-DL 1080p Latino

    1h 38m 2023

    Una escapada muy necesaria y un fin de semana de celebración se convierte en una pesadilla debido a...

    Director: Deon Taylor

    Género: Drama

    Actores: Whylip Lee

  • Chucky (2023) Temporada 3 WEB-DL 1080p Latino

    Chucky (2023) Temporada 3 WEB-DL 1080p Latino

    2021
    Chucky (2023) Temporada 3 WEB-DL 1080p Latino

    0h 42m 2021

    El infame Chucky se abre paso a cuchilladas hacia la televisión en una nueva y mortífera serie escrita...

    Director: Nick Antosca

    Género: Crimen

    Actores: Zackary Arthur

  • Good Burger 2 (2023) HD 1080p Latino

    Good Burger 2 (2023) HD 1080p Latino

    2023
    Good Burger 2 (2023) HD 1080p Latino

    1h 31m 2023

    Descargar Good Burger 2 (2023) HD 1080p Latino. Después de que su último invento falla, Ed le da la...

    Director: Ross Novie

    Género: Comedia

    Actores: Zoe Saldana

descargar Mrs Doubtfire (1993) REMUX 1080p Latino – CMHDD Full 1080p 1080p gratis, Mrs Doubtfire (1993) REMUX 1080p Latino – CMHDD Full 1080p mega 1 link, Mrs Doubtfire (1993) REMUX 1080p Latino – CMHDD Full 1080p pelicula completa, descargar Mrs Doubtfire (1993) REMUX 1080p Latino – CMHDD Full 1080p gratis en mega.

Mrs Doubtfire (1993) REMUX 1080p Latino – CMHDD pelicula full hd, Mrs Doubtfire (1993) REMUX 1080p Latino – CMHDD mega latino, Mrs Doubtfire (1993) REMUX 1080p Latino – CMHDD 4k latino, Mrs Doubtfire (1993) REMUX 1080p Latino – CMHDD pelicula completa, Mrs Doubtfire (1993) REMUX 1080p Latino – CMHDD descargar gratis, descargar Mrs Doubtfire (1993) REMUX 1080p Latino – CMHDD pelicula latino, Mrs Doubtfire (1993) REMUX 1080p Latino – CMHDD 1 link mega, Mrs Doubtfire (1993) REMUX 1080p Latino – CMHDD 1 link google drive, Mrs Doubtfire (1993) REMUX 1080p Latino – CMHDD hd 1080p latino.
Comentarios 0