×

¿Problemas para descargar con Mozilla, EDGE? Deshabilita la opción "Abrir vinculos en una pestaña nueva" tal como lo muestra ésta imagen.

Mr. Smith Goes to Washington (1939) REMUX 4K HDR Latino – CMHDD

195 vistas

Información de Mr. Smith Goes to Washington (1939) REMUX 4K HDR Latino – CMHDD

Datos de la película

  • Calidad: 4K HDR
  • Audio: Se especifica abajo de la Sinopsis
  • Subtitulos: Español Latino PGS
  • Resolución: 3840x2160p
  • Formato: MKV
  • Codec: HEVC
  • Encoder: Dracarys
  • Mediainfo: Clic para Mostrar Datos Ver
  • Format                      : Matroska
    Format version              : Version 4
    File size                   : 48.3 GiB
    Duration                    : 2 h 9 min
    Overall bit rate mode       : Variable
    Overall bit rate            : 53.3 Mb/s
    Movie name                  : Mr. Smith Goes To Washington – 4K Ultra HD
    Encoded date                : UTC 2021-07-07 19:16:43
    Writing application         : mkvmerge v56.1.0 ('My Friend') 64-bit
    Writing library             : libebml v1.4.2 + libmatroska v1.6.4
    Cover                       : Yes
    Attachments                 : cover.jpg

    Video
    ID                          : 1
    ID in the original source m : 4113 (0x1011)
    Format                      : HEVC
    Format/Info                 : High Efficiency Video Coding
    Format profile              : Main 10@L5.1@High
    HDR format                  : SMPTE ST 2086, HDR10 compatible
    Codec ID                    : V_MPEGH/ISO/HEVC
    Duration                    : 2 h 9 min
    Bit rate                    : 51.3 Mb/s
    Width                       : 3 840 pixels
    Height                      : 2 160 pixels
    Display aspect ratio        : 16:9
    Frame rate mode             : Constant
    Frame rate                  : 23.976 (24000/1001) FPS
    Color space                 : YUV
    Chroma subsampling          : 4:2:0 (Type 2)
    Bit depth                   : 10 bits
    Bits/(Pixel*Frame)          : 0.258
    Stream size                 : 46.5 GiB (96%)
    Default                     : Yes
    Forced                      : No
    Color range                 : Limited
    Color primaries             : BT.2020
    Transfer characteristics    : PQ
    Matrix coefficients         : BT.2020 non-constant
    Mastering display color pri : Display P3
    Mastering display luminance : min: 0.0050 cd/m2, max: 4000 cd/m2
    Maximum Content Light Level : 2508 cd/m2
    Maximum Frame-Average Light : 216 cd/m2
    Original source medium      : Blu-ray

    Audio #1
    ID                          : 2
    ID in the original source m : 4352 (0x1100)
    Format                      : DTS XLL
    Format/Info                 : Digital Theater Systems
    Commercial name             : DTS-HD Master Audio
    Codec ID                    : A_DTS
    Duration                    : 2 h 9 min
    Bit rate mode               : Variable
    Bit rate                    : 1 768 kb/s
    Channel(s)                  : 2 channels
    Channel layout              : L R
    Sampling rate               : 48.0 kHz
    Frame rate                  : 93.750 FPS (512 SPF)
    Bit depth                   : 24 bits
    Compression mode            : Lossless
    Stream size                 : 1.60 GiB (3%)
    Language                    : English
    Default                     : No
    Forced                      : No
    Original source medium      : Blu-ray

    Audio #2
    ID                          : 3
    ID in the original source m : 4358 (0x1106)
    Format                      : AC-3
    Format/Info                 : Audio Coding 3
    Commercial name             : Dolby Digital
    Codec ID                    : A_AC3
    Duration                    : 2 h 9 min
    Bit rate mode               : Constant
    Bit rate                    : 192 kb/s
    Channel(s)                  : 2 channels
    Channel layout              : L R
    Sampling rate               : 48.0 kHz
    Frame rate                  : 31.250 FPS (1536 SPF)
    Compression mode            : Lossy
    Stream size                 : 178 MiB (0%)
    Language                    : Spanish
    Service kind                : Complete Main
    Default                     : Yes
    Forced                      : No
    Original source medium      : Blu-ray

    Text
    ID                          : 4
    ID in the original source m : 4780 (0x12AC)
    Format                      : PGS
    Muxing mode                 : zlib
    Codec ID                    : S_HDMV/PGS
    Codec ID/Info               : Picture based subtitle format used on BDs/HD-DVDs
    Duration                    : 2 h 8 min
    Bit rate                    : 50.5 kb/s
    Count of elements           : 4668
    Stream size                 : 46.5 MiB (0%)
    Language                    : Spanish
    Default                     : Yes
    Forced                      : No
    Original source medium      : Blu-ray

    Menu
    00:00:00.000                : Chapter 01
    00:06:16.209                : Chapter 02
    00:14:54.351                : Chapter 03
    00:20:57.589                : Chapter 04
    00:28:58.528                : Chapter 05
    00:34:19.724                : Chapter 06
    00:42:02.311                : Chapter 07
    00:50:23.729                : Chapter 08
    00:59:50.253                : Chapter 09
    01:09:30.332                : Chapter 10
    01:17:28.602                : Chapter 11
    01:24:49.834                : Chapter 12
    01:34:34.502                : Chapter 13
    01:41:41.720                : Chapter 14
    01:51:19.047                : Chapter 15
    02:00:02.862                : Chapter 16

  • Peso: 48.3 GiB

Sinopsis

Naive and idealistic Jefferson Smith, leader of the Boy Rangers, is appointed to the United States Senate by the puppet governor of his state. He soon discovers, upon going to Washington, many shortcomings of the political process as his earnest goal of a national boys’ camp leads to a conflict with the state political boss.

 

Latino: nAC3 2.0  –  Ingles: DTS-HD Master Audio 2.0

Ficha técnica

Video trailer de la película

Enlaces de descarga

Rip de Bluray

Descargar Mr. Smith Goes to Washington (1939) REMUX 4K HDR Latino – CMHDD


Aportes de DPeliculasHDmega la pass es:dpeliculashdmega.org Aportes de CinemaniaHD la pass es:cinemaniahdd.com
Guardado en : Comedy , Drama

Películas relacionadas

  • Paradise Highway (2022) HD 1080p Latino

    Paradise Highway (2022) HD 1080p Latino

    2022
    Paradise Highway (2022) HD 1080p Latino

    1h 55m 2022

    Descargar Paradise Highway (2022) HD 1080p Latino. Un camionero se ha visto obligado a pasar de contrabando...

    Director: Anna Gutto

    Género: Crimen

    Actores: Xavier Scott Evans

  • Paradise Highway (2022) PLACEBO Full HD 1080p Latino

    Paradise Highway (2022) PLACEBO Full HD 1080p Latino

    2022
    Paradise Highway (2022) PLACEBO Full HD 1080p Latino

    1h 55m 2022

    Descargar Paradise Highway (2022) PLACEBO Full HD 1080p Latino. Un camionero se ha visto obligado a pasar...

    Director: Anna Gutto

    Género: Crimen

    Actores: Xavier Scott Evans

  • Paradise Highway (2022) REMUX 1080p Latino

    Paradise Highway (2022) REMUX 1080p Latino

    2022
    Paradise Highway (2022) REMUX 1080p Latino

    1h 55m 2022

    Descargar Paradise Highway (2022) REMUX 1080p Latino. Un camionero se ha visto obligado a pasar de contrabando...

    Director: Anna Gutto

    Género: Crimen

    Actores: Xavier Scott Evans

  • Narvik (2022) NF WEB-DL 1080p Latino

    Narvik (2022) NF WEB-DL 1080p Latino

    2022
    Narvik (2022) NF WEB-DL 1080p Latino

    1h 48m 2022

    Descargar Narvik (2022) NF WEB-DL 1080p Latino. Abril de 1940. Los ojos del mundo están puestos en Narvik,...

    Director: Suzanne Svae-Johansen

    Género: Acción

    Actores: Torfinn Nag

descargar Mr. Smith Goes to Washington (1939) REMUX 4K HDR Latino – CMHDD 4K HDR 1080p gratis, Mr. Smith Goes to Washington (1939) REMUX 4K HDR Latino – CMHDD 4K HDR mega 1 link, Mr. Smith Goes to Washington (1939) REMUX 4K HDR Latino – CMHDD 4K HDR pelicula completa, descargar Mr. Smith Goes to Washington (1939) REMUX 4K HDR Latino – CMHDD 4K HDR gratis en mega.

Mr. Smith Goes to Washington (1939) REMUX 4K HDR Latino – CMHDD pelicula full hd, Mr. Smith Goes to Washington (1939) REMUX 4K HDR Latino – CMHDD mega latino, Mr. Smith Goes to Washington (1939) REMUX 4K HDR Latino – CMHDD 4k latino, Mr. Smith Goes to Washington (1939) REMUX 4K HDR Latino – CMHDD pelicula completa, Mr. Smith Goes to Washington (1939) REMUX 4K HDR Latino – CMHDD descargar gratis, descargar Mr. Smith Goes to Washington (1939) REMUX 4K HDR Latino – CMHDD pelicula latino, Mr. Smith Goes to Washington (1939) REMUX 4K HDR Latino – CMHDD 1 link mega, Mr. Smith Goes to Washington (1939) REMUX 4K HDR Latino – CMHDD 1 link google drive, Mr. Smith Goes to Washington (1939) REMUX 4K HDR Latino – CMHDD hd 1080p latino.