×

¿Problemas para descargar con Mozilla, EDGE? Deshabilita la opción "Abrir vinculos en una pestaña nueva" tal como lo muestra ésta imagen.

Mr. Robot (2019) Temporada 04 REMUX 1080p Latino

157 vistas

Información de Mr. Robot (2019) Temporada 04 REMUX 1080p Latino

Datos de la película

  • Calidad: Full 1080p
  • Audio: Español Latino AC3 5.1 WEB-DL - Ingles DTS 5.1 BLURAY
  • Subtitulos: Español Latino PGS - Ingles PGS
  • Resolución: 1920x1080p
  • Formato: MKV
  • Codec: H.264
  • Encoder: CinefiloCool
  • Mediainfo: Clic para Mostrar Datos Ver
  • Mr. Robot S04E01 (2019) REMUX 1080p Latino-CMHDD.mkv
    Format                      : Matroska
    Format version              : Version 4
    File size                   : 15.1 GiB
    Duration                    : 1 h 1 min
    Overall bit rate mode       : Variable
    Overall bit rate            : 35.5 Mb/s
    Movie name                  : Mr. Robot S04E01 401 Unauthorized CinemaniaHDD.Net
    Encoded date                : UTC 2021-12-26 18:07:03
    Writing application         : mkvmerge v56.1.0 ('My Friend') 64-bit
    Writing library             : libebml v1.4.2 + libmatroska v1.6.4
    Attachments                 : CINEMANIAHD.png

    Video
    ID                          : 1
    Format                      : AVC
    Format/Info                 : Advanced Video Codec
    Format profile              : High@L4.1
    Format settings             : CABAC / 4 Ref Frames
    Format settings, CABAC      : Yes
    Format settings, Reference  : 4 frames
    Codec ID                    : V_MPEG4/ISO/AVC
    Duration                    : 1 h 1 min
    Bit rate mode               : Variable
    Bit rate                    : 31.1 Mb/s
    Maximum bit rate            : 35.0 Mb/s
    Width                       : 1 920 pixels
    Height                      : 1 080 pixels
    Display aspect ratio        : 16:9
    Frame rate mode             : Constant
    Frame rate                  : 23.976 (24000/1001) FPS
    Color space                 : YUV
    Chroma subsampling          : 4:2:0
    Bit depth                   : 8 bits
    Scan type                   : Progressive
    Bits/(Pixel*Frame)          : 0.626
    Stream size                 : 13.3 GiB (88%)
    Title                       : REMUX HD1080p [CinemaniaHDD]
    Default                     : Yes
    Forced                      : Yes

    Audio #1
    ID                          : 2
    Format                      : AC-3
    Format/Info                 : Audio Coding 3
    Commercial name             : Dolby Digital
    Codec ID                    : A_AC3
    Duration                    : 1 h 0 min
    Bit rate mode               : Constant
    Bit rate                    : 640 kb/s
    Channel(s)                  : 6 channels
    Channel layout              : L R C LFE Ls Rs
    Sampling rate               : 48.0 kHz
    Frame rate                  : 31.250 FPS (1536 SPF)
    Compression mode            : Lossy
    Delay relative to video     : 14 ms
    Stream size                 : 279 MiB (2%)
    Title                       : Español Latino [CinemaniaHDD]
    Language                    : Spanish
    Service kind                : Complete Main
    Default                     : Yes
    Forced                      : Yes

    Audio #2
    ID                          : 3
    Format                      : DTS XLL
    Format/Info                 : Digital Theater Systems
    Commercial name             : DTS-HD Master Audio
    Codec ID                    : A_DTS
    Duration                    : 1 h 1 min
    Bit rate mode               : Variable
    Bit rate                    : 3 687 kb/s
    Channel(s)                  : 6 channels
    Channel layout              : C L R Ls Rs LFE
    Sampling rate               : 48.0 kHz
    Frame rate                  : 93.750 FPS (512 SPF)
    Bit depth                   : 24 bits
    Compression mode            : Lossless
    Stream size                 : 1.57 GiB (10%)
    Title                       : Ingles [CinemaniaHDD]
    Language                    : English
    Default                     : No
    Forced                      : No

    Text #1
    ID                          : 4
    Format                      : PGS
    Muxing mode                 : zlib
    Codec ID                    : S_HDMV/PGS
    Codec ID/Info               : Picture based subtitle format used on BDs/HD-DVDs
    Duration                    : 1 h 0 min
    Bit rate                    : 31.6 kb/s
    Count of elements           : 1288
    Stream size                 : 13.8 MiB (0%)
    Title                       : Español-PGS [CinemaniaHDD]
    Language                    : Spanish
    Default                     : No
    Forced                      : No

    Text #2
    ID                          : 5
    Format                      : PGS
    Muxing mode                 : zlib
    Codec ID                    : S_HDMV/PGS
    Codec ID/Info               : Picture based subtitle format used on BDs/HD-DVDs
    Duration                    : 1 h 0 min
    Bit rate                    : 41.7 kb/s
    Count of elements           : 1608
    Stream size                 : 18.0 MiB (0%)
    Title                       : Ingles-PGS [CinemaniaHDD]
    Language                    : English
    Default                     : No
    Forced                      : No

    Text #3
    ID                          : 6
    Format                      : UTF-8
    Codec ID                    : S_TEXT/UTF8
    Codec ID/Info               : UTF-8 Plain Text
    Duration                    : 3 s 28 ms
    Bit rate                    : 76 b/s
    Count of elements           : 1
    Stream size                 : 29.0 Bytes (0%)
    Title                       : Forzados-SRT [CinemaniaHDD]
    Language                    : Spanish
    Default                     : Yes
    Forced                      : Yes

    Text #4
    ID                          : 7
    Format                      : UTF-8
    Codec ID                    : S_TEXT/UTF8
    Codec ID/Info               : UTF-8 Plain Text
    Duration                    : 1 h 0 min
    Bit rate                    : 45 b/s
    Count of elements           : 801
    Stream size                 : 20.3 KiB (0%)
    Title                       : Español-SRT [CinemaniaHDD]
    Language                    : Spanish
    Default                     : No
    Forced                      : No

    Menu
    00:00:00.000                : Chapter 01
    00:11:08.709                : Chapter 02
    00:32:17.685                : Chapter 03
    00:47:23.131                : Chapter 04

  • Peso: 11.80 - 15.1 GiB Aprox. C/U | 146 GiB Total.

Sinopsis

Descargar Mr. Robot (2019) Temporada 04 REMUX 1080p Latino. Elliot Anderson es un joven y brillante programador con problemas para las relaciones sociales que durante el día trabaja como técnico de ciberseguridad de una importante empresa informática y por la noche es un desinteresado justiciero cibernético, que se verá envuelto en una oscura trama.

Argumento Cuarta Temporada: El verdadero enemigo del sistema ha sido expuesto y Elliot vuelve con la mente más clara al punto de partida: utilizar su lado justiciero para que los que mueven los hilos no vuelvan a salirse con la suya. La temporada transcurre durante la semana de Navidad de 2015. Los títulos de los primeros 10 episodios de la cuarta temporada están redactados como códigos 4xx de respuesta sobre errores de cliente en el protocolo HTTP.

Disponible Solo Para VIP!!!

Ficha técnica

Video trailer de la película

Enlaces de descarga

Rip de Bluray

Descargar Mr. Robot (2019) Temporada 04 REMUX 1080p Latino


Aportes de DPeliculasHDmega la pass es:dpeliculashdmega.org Aportes de CinemaniaHD la pass es:cinemaniahdd.com
Guardado en : Crimen , Drama , Remux , Series

Películas relacionadas

  • Zola (2020) HD 1080p Latino

    Zola (2020) HD 1080p Latino

    2020
    Zola (2020) HD 1080p Latino

    1h 26m 2020

    Descargar Zola (2020) HD 1080p Latino. Una camarera accede a acompañar a una bailarina exótica, su...

    Director: Sheri Davani

    Género: Comedia

    Actores: Ts Madison

  • Zola (2020) PLACEBO Full HD 1080p Latino

    Zola (2020) PLACEBO Full HD 1080p Latino

    2020
    Zola (2020) PLACEBO Full HD 1080p Latino

    1h 26m 2020

    Descargar Zola (2020) PLACEBO Full HD 1080p Latino. Una camarera accede a acompañar a una bailarina...

    Director: Sheri Davani

    Género: Comedia

    Actores: Ts Madison

  • Zola (2020) REMUX 1080p Latino

    Zola (2020) REMUX 1080p Latino

    2020
    Zola (2020) REMUX 1080p Latino

    1h 26m 2020

    Descargar Zola (2020) REMUX 1080p Latino. Una camarera accede a acompañar a una bailarina exótica,...

    Director: Sheri Davani

    Género: Comedia

    Actores: Ts Madison

descargar Mr. Robot (2019) Temporada 04 REMUX 1080p Latino Full 1080p 1080p gratis, Mr. Robot (2019) Temporada 04 REMUX 1080p Latino Full 1080p mega 1 link, Mr. Robot (2019) Temporada 04 REMUX 1080p Latino Full 1080p serie completa, descargar Mr. Robot (2019) Temporada 04 REMUX 1080p Latino Full 1080p gratis en mega.

Mr. Robot (2019) Temporada 04 REMUX 1080p Latino pelicula full hd, Mr. Robot (2019) Temporada 04 REMUX 1080p Latino mega latino, Mr. Robot (2019) Temporada 04 REMUX 1080p Latino 4k latino, Mr. Robot (2019) Temporada 04 REMUX 1080p Latino pelicula completa, Mr. Robot (2019) Temporada 04 REMUX 1080p Latino descargar gratis, descargar Mr. Robot (2019) Temporada 04 REMUX 1080p Latino pelicula latino, Mr. Robot (2019) Temporada 04 REMUX 1080p Latino 1 link mega, Mr. Robot (2019) Temporada 04 REMUX 1080p Latino 1 link google drive, Mr. Robot (2019) Temporada 04 REMUX 1080p Latino hd 1080p latino.
Comentarios 0