×

¿Problemas para descargar con Mozilla, EDGE? Deshabilita la opción "Abrir vinculos en una pestaña nueva" tal como lo muestra ésta imagen.

Mr. Robot (2017) Tercera Temporada REMUX 1080p Latino– CMHDD

269 vistas

Información de Mr. Robot (2017) Tercera Temporada REMUX 1080p Latino– CMHDD

Datos de la película

  • Calidad: Full 1080p
  • Audio: Se especifica abajo de la Sinopsis
  • Subtitulos: Español Latino SRT- FORZADOS SRT
  • Resolución: 1920x1080p
  • Formato: MKV
  • Codec: H.264
  • Encoder: Dracarys
  • Mediainfo: Clic para Mostrar Datos Ver
  • Format                      : Matroska
    Format version              : Version 4
    File size                   : 12.5 GiB
    Duration                    : 53 min 16 s
    Overall bit rate mode       : Variable
    Overall bit rate            : 33.7 Mb/s
    Movie name                  : Mr. Robot (2017) [S03E01] REMUX 1080p Latino-- CMHDD
    Encoded date                : UTC 2021-01-23 02:59:53
    Writing application         : mkvmerge v51.0.0 ('I Wish') 64-bit
    Writing library             : libebml v1.4.0 + libmatroska v1.6.2

    Video
    ID                          : 1
    Format                      : AVC
    Format/Info                 : Advanced Video Codec
    Format profile              : High@L4.1
    Format settings             : CABAC / 4 Ref Frames
    Format settings, CABAC      : Yes
    Format settings, Reference  : 4 frames
    Codec ID                    : V_MPEG4/ISO/AVC
    Duration                    : 53 min 16 s
    Bit rate mode               : Variable
    Bit rate                    : 30.5 Mb/s
    Maximum bit rate            : 35.0 Mb/s
    Width                       : 1 920 pixels
    Height                      : 1 080 pixels
    Display aspect ratio        : 16:9
    Frame rate mode             : Constant
    Frame rate                  : 23.976 (24000/1001) FPS
    Color space                 : YUV
    Chroma subsampling          : 4:2:0
    Bit depth                   : 8 bits
    Scan type                   : Progressive
    Bits/(Pixel*Frame)          : 0.614
    Stream size                 : 11.4 GiB (91%)
    Default                     : Yes
    Forced                      : No

    Audio #1
    ID                          : 2
    Format                      : E-AC-3
    Format/Info                 : Enhanced AC-3
    Commercial name             : Dolby Digital Plus
    Codec ID                    : A_EAC3
    Duration                    : 53 min 16 s
    Bit rate mode               : Constant
    Bit rate                    : 640 kb/s
    Channel(s)                  : 6 channels
    Channel layout              : L R C LFE Ls Rs
    Sampling rate               : 48.0 kHz
    Frame rate                  : 31.250 FPS (1536 SPF)
    Compression mode            : Lossy
    Stream size                 : 244 MiB (2%)
    Language                    : Spanish
    Service kind                : Complete Main
    Default                     : No
    Forced                      : No

    Audio #2
    ID                          : 3
    Format                      : DTS XLL
    Format/Info                 : Digital Theater Systems
    Commercial name             : DTS-HD Master Audio
    Codec ID                    : A_DTS
    Duration                    : 53 min 16 s
    Bit rate mode               : Variable
    Bit rate                    : 2 476 kb/s
    Channel(s)                  : 6 channels
    Channel layout              : C L R Ls Rs LFE
    Sampling rate               : 48.0 kHz
    Frame rate                  : 93.750 FPS (512 SPF)
    Bit depth                   : 24 bits
    Compression mode            : Lossless
    Stream size                 : 943 MiB (7%)
    Language                    : English
    Default                     : Yes
    Forced                      : No

    Text #1
    ID                          : 4
    Format                      : UTF-8
    Codec ID                    : S_TEXT/UTF8
    Codec ID/Info               : UTF-8 Plain Text
    Duration                    : 53 min 13 s
    Bit rate                    : 60 b/s
    Count of elements           : 661
    Stream size                 : 23.7 KiB (0%)
    Language                    : Spanish
    Default                     : No
    Forced                      : No

    Text #2
    ID                          : 5
    Format                      : UTF-8
    Codec ID                    : S_TEXT/UTF8
    Codec ID/Info               : UTF-8 Plain Text
    Duration                    : 47 min 38 s
    Bit rate                    : 0 b/s
    Count of elements           : 9
    Stream size                 : 239 Bytes (0%)
    Language                    : Spanish
    Default                     : Yes
    Forced                      : No

    Text #3
    ID                          : 6
    Format                      : PGS
    Muxing mode                 : zlib
    Codec ID                    : S_HDMV/PGS
    Codec ID/Info               : Picture based subtitle format used on BDs/HD-DVDs
    Duration                    : 53 min 13 s
    Bit rate                    : 38.1 kb/s
    Count of elements           : 1512
    Stream size                 : 14.5 MiB (0%)
    Language                    : Spanish
    Default                     : No
    Forced                      : No

    Menu
    00:00:00.000                : en:00:00:00.000
    00:09:56.846                : en:00:09:56.846
    00:28:24.870                : en:00:28:24.870
    00:42:05.815                : en:00:42:05.815

  • Peso: 112 GiB Total

Sinopsis

Mr. Robot se centra en un joven programador, Elliot, que sufre de un trastorno antisocial debilitante y decide que sólo puede conectar con la gente a través de la piratería. Él maneja sus habilidades como un arma para proteger a las personas que le importan, trabajando como ingeniero de seguridad cibernética de día y como hacker de noche. Esta situación pondrá a Elliot en la disyuntiva de elegir entre una firma de seguridad cibernética para la que trabaja o apoyar a las organizaciones de los bajos fondos que le quieren reclutar para derribar la América corporativa.

Latino: E-AC3 5.1 Amazon – DTS-HD MA 5.1 BluRay

Ficha técnica

  • Titulo original: Mr. Robot
  • Fecha de lanzamiento: 27-05-2015 (US)
  • Director: Sam Esmail
  • Género: Crimen, Drama

Video trailer de la película

Enlaces de descarga

Rip de Bluray

Descargar Mr. Robot (2017) Tercera Temporada REMUX 1080p Latino– CMHDD


Aportes de DPeliculasHDmega la pass es:dpeliculashdmega.org Aportes de CinemaniaHD la pass es:cinemaniahdd.com
Guardado en : Crimen , Drama

Películas relacionadas

  • Noche sin paz (2022) PLACEBO Full HD 1080p Latino

    Noche sin paz (2022) PLACEBO Full HD 1080p Latino

    2022
    Noche sin paz (2022) PLACEBO Full HD 1080p Latino

    1h 41m 2022

    Descargar Noche sin paz (2022) PLACEBO Full HD 1080p Latino. Cuando un equipo de mercenarios irrumpe...

    Director: Tyshana Hobson

    Género: Acción

    Actores: Yoon Cha-Lee

  • Noche sin paz (2022) HD 1080p Latino

    Noche sin paz (2022) HD 1080p Latino

    2022
    Noche sin paz (2022) HD 1080p Latino

    1h 41m 2022

    Descargar Noche sin paz (2022) HD 1080p Latino. Cuando un equipo de mercenarios irrumpe en Nochebuena...

    Director: Tyshana Hobson

    Género: Acción

    Actores: Yoon Cha-Lee

  • Noche sin paz (2022) REMUX 1080p Latino

    Noche sin paz (2022) REMUX 1080p Latino

    2022
    Noche sin paz (2022) REMUX 1080p Latino

    1h 41m 2022

    Descargar Noche sin paz (2022) REMUX 1080p Latino. Cuando un equipo de mercenarios irrumpe en Nochebuena...

    Director: Tyshana Hobson

    Género: Acción

    Actores: Yoon Cha-Lee

  • Narvik (2022) NF WEB-DL 1080p Latino

    Narvik (2022) NF WEB-DL 1080p Latino

    2022
    Narvik (2022) NF WEB-DL 1080p Latino

    1h 48m 2022

    Descargar Narvik (2022) NF WEB-DL 1080p Latino. Abril de 1940. Los ojos del mundo están puestos en Narvik,...

    Director: Suzanne Svae-Johansen

    Género: Acción

    Actores: Torfinn Nag

descargar Mr. Robot (2017) Tercera Temporada REMUX 1080p Latino– CMHDD Full 1080p 1080p gratis, Mr. Robot (2017) Tercera Temporada REMUX 1080p Latino– CMHDD Full 1080p mega 1 link, Mr. Robot (2017) Tercera Temporada REMUX 1080p Latino– CMHDD Full 1080p pelicula completa, descargar Mr. Robot (2017) Tercera Temporada REMUX 1080p Latino– CMHDD Full 1080p gratis en mega.

Mr. Robot (2017) Tercera Temporada REMUX 1080p Latino– CMHDD pelicula full hd, Mr. Robot (2017) Tercera Temporada REMUX 1080p Latino– CMHDD mega latino, Mr. Robot (2017) Tercera Temporada REMUX 1080p Latino– CMHDD 4k latino, Mr. Robot (2017) Tercera Temporada REMUX 1080p Latino– CMHDD pelicula completa, Mr. Robot (2017) Tercera Temporada REMUX 1080p Latino– CMHDD descargar gratis, descargar Mr. Robot (2017) Tercera Temporada REMUX 1080p Latino– CMHDD pelicula latino, Mr. Robot (2017) Tercera Temporada REMUX 1080p Latino– CMHDD 1 link mega, Mr. Robot (2017) Tercera Temporada REMUX 1080p Latino– CMHDD 1 link google drive, Mr. Robot (2017) Tercera Temporada REMUX 1080p Latino– CMHDD hd 1080p latino.
Comentarios 0