×

¿Problemas para descargar con Mozilla, EDGE? Deshabilita la opción "Abrir vinculos en una pestaña nueva" tal como lo muestra ésta imagen.

Mr. Robot (2016) Segunda Temporada REMUX 1080p Latino– CMHDD

203 vistas

Información de Mr. Robot (2016) Segunda Temporada REMUX 1080p Latino– CMHDD

Datos de la película

  • Calidad: Full 1080p
  • Audio: Se especifica abajo de la Sinopsis
  • Subtitulos: Español Latino SRT- FORZADOS SRT
  • Resolución: 1920x1080p
  • Formato: MKV
  • Codec: H.264
  • Encoder: Dracarys
  • Mediainfo: Clic para Mostrar Datos Ver
  • Format                      : Matroska
    Format version              : Version 4
    File size                   : 11.5 GiB
    Duration                    : 1 h 3 min
    Overall bit rate mode       : Variable
    Overall bit rate            : 26.0 Mb/s
    Movie name                  : Mr. Robot (2016) [S01E03] REMUX 1080p Latino-- CMHDD
    Encoded date                : UTC 2021-01-21 04:02:32
    Writing application         : mkvmerge v51.0.0 ('I Wish') 64-bit
    Writing library             : libebml v1.4.0 + libmatroska v1.6.2

    Video
    ID                          : 1
    Format                      : AVC
    Format/Info                 : Advanced Video Codec
    Format profile              : High@L4.1
    Format settings             : CABAC / 4 Ref Frames
    Format settings, CABAC      : Yes
    Format settings, Reference  : 4 frames
    Codec ID                    : V_MPEG4/ISO/AVC
    Duration                    : 1 h 3 min
    Bit rate mode               : Variable
    Bit rate                    : 21.7 Mb/s
    Maximum bit rate            : 35.0 Mb/s
    Width                       : 1 920 pixels
    Height                      : 1 080 pixels
    Display aspect ratio        : 16:9
    Frame rate mode             : Constant
    Frame rate                  : 23.976 (24000/1001) FPS
    Color space                 : YUV
    Chroma subsampling          : 4:2:0
    Bit depth                   : 8 bits
    Scan type                   : Progressive
    Bits/(Pixel*Frame)          : 0.437
    Stream size                 : 9.57 GiB (84%)
    Default                     : Yes
    Forced                      : No

    Audio #1
    ID                          : 2
    Format                      : E-AC-3
    Format/Info                 : Enhanced AC-3
    Commercial name             : Dolby Digital Plus
    Codec ID                    : A_EAC3
    Duration                    : 1 h 3 min
    Bit rate mode               : Constant
    Bit rate                    : 640 kb/s
    Channel(s)                  : 6 channels
    Channel layout              : L R C LFE Ls Rs
    Sampling rate               : 48.0 kHz
    Frame rate                  : 31.250 FPS (1536 SPF)
    Compression mode            : Lossy
    Stream size                 : 288 MiB (2%)
    Language                    : Spanish
    Service kind                : Complete Main
    Default                     : Yes
    Forced                      : No

    Audio #2
    ID                          : 3
    Format                      : DTS XLL
    Format/Info                 : Digital Theater Systems
    Commercial name             : DTS-HD Master Audio
    Codec ID                    : A_DTS
    Duration                    : 1 h 3 min
    Bit rate mode               : Variable
    Bit rate                    : 3 639 kb/s
    Channel(s)                  : 6 channels
    Channel layout              : C L R Ls Rs LFE
    Sampling rate               : 48.0 kHz
    Frame rate                  : 93.750 FPS (512 SPF)
    Bit depth                   : 24 bits
    Compression mode            : Lossless
    Stream size                 : 1.60 GiB (14%)
    Language                    : English
    Default                     : No
    Forced                      : No

    Text #1
    ID                          : 4
    Format                      : UTF-8
    Codec ID                    : S_TEXT/UTF8
    Codec ID/Info               : UTF-8 Plain Text
    Duration                    : 1 h 2 min
    Bit rate                    : 60 b/s
    Count of elements           : 745
    Stream size                 : 27.5 KiB (0%)
    Language                    : Spanish
    Default                     : No
    Forced                      : No

    Text #2
    ID                          : 5
    Format                      : UTF-8
    Codec ID                    : S_TEXT/UTF8
    Codec ID/Info               : UTF-8 Plain Text
    Duration                    : 28 min 19 s
    Bit rate                    : 0 b/s
    Count of elements           : 4
    Stream size                 : 106 Bytes (0%)
    Language                    : Spanish
    Default                     : Yes
    Forced                      : No

    Menu
    00:00:00.000                : en:00:00:00.000
    00:06:34.519                : en:00:06:34.519
    00:24:26.256                : en:00:24:26.256
    00:42:55.656                : en:00:42:55.656

  • Peso: 115 GiB Total

Sinopsis

Mr. Robot se centra en un joven programador, Elliot, que sufre de un trastorno antisocial debilitante y decide que sólo puede conectar con la gente a través de la piratería. Él maneja sus habilidades como un arma para proteger a las personas que le importan, trabajando como ingeniero de seguridad cibernética de día y como hacker de noche. Esta situación pondrá a Elliot en la disyuntiva de elegir entre una firma de seguridad cibernética para la que trabaja o apoyar a las organizaciones de los bajos fondos que le quieren reclutar para derribar la América corporativa.

Latino: E-AC3 5.1 Amazon – DTS-HD MA 5.1 BluRay

Ficha técnica

  • Titulo original: Mr. Robot
  • Fecha de lanzamiento: 27-05-2015 (US)
  • Director: Sam Esmail
  • Género: Crimen, Drama

Video trailer de la película

Enlaces de descarga

Rip de Bluray

Descargar Mr. Robot (2016) Segunda Temporada REMUX 1080p Latino– CMHDD


Aportes de DPeliculasHDmega la pass es:dpeliculashdmega.org Aportes de CinemaniaHD la pass es:cinemaniahdd.com
Guardado en : Crimen , Drama

Películas relacionadas

descargar Mr. Robot (2016) Segunda Temporada REMUX 1080p Latino– CMHDD Full 1080p 1080p gratis, Mr. Robot (2016) Segunda Temporada REMUX 1080p Latino– CMHDD Full 1080p mega 1 link, Mr. Robot (2016) Segunda Temporada REMUX 1080p Latino– CMHDD Full 1080p pelicula completa, descargar Mr. Robot (2016) Segunda Temporada REMUX 1080p Latino– CMHDD Full 1080p gratis en mega.

Mr. Robot (2016) Segunda Temporada REMUX 1080p Latino– CMHDD pelicula full hd, Mr. Robot (2016) Segunda Temporada REMUX 1080p Latino– CMHDD mega latino, Mr. Robot (2016) Segunda Temporada REMUX 1080p Latino– CMHDD 4k latino, Mr. Robot (2016) Segunda Temporada REMUX 1080p Latino– CMHDD pelicula completa, Mr. Robot (2016) Segunda Temporada REMUX 1080p Latino– CMHDD descargar gratis, descargar Mr. Robot (2016) Segunda Temporada REMUX 1080p Latino– CMHDD pelicula latino, Mr. Robot (2016) Segunda Temporada REMUX 1080p Latino– CMHDD 1 link mega, Mr. Robot (2016) Segunda Temporada REMUX 1080p Latino– CMHDD 1 link google drive, Mr. Robot (2016) Segunda Temporada REMUX 1080p Latino– CMHDD hd 1080p latino.
Comentarios 0