×

¿Problemas para descargar con Mozilla, EDGE? Deshabilita la opción "Abrir vinculos en una pestaña nueva" tal como lo muestra ésta imagen.

Mr. Link (2019) 1080p Latino

1.196 vistas

Información de Mr. Link (2019) 1080p Latino

Datos de la película

  • Calidad: 1080p
  • Audio: Español Latino AC3 2.0 DVD - Ingles AC3 5.1 BLURAY
  • Subtitulos: Español Latino SRT
  • Resolución: 1918x800
  • Formato: MKV
  • Codec: H.264
  • Encoder: cinemaniahd
  • Mediainfo: Clic para Mostrar Datos Ver
  • Missing Link (2019) 1080p Latino.mkv
    Format                      : Matroska
    Format version              : Version 4
    File size                   : 2.86 GiB
    Duration                    : 1 h 34 min
    Overall bit rate            : 4 337 kb/s
    Movie name                  : Missing Link (2019) 1080p Latino
    Encoded date                : UTC 2020-02-05 19:46:52
    Writing application         : mkvmerge v42.0.0 ('Overtime') 64-bit
    Writing library             : libebml v1.3.10 + libmatroska v1.5.2 / Lavf58.20.100

    Video
    ID                          : 1
    Format                      : AVC
    Format/Info                 : Advanced Video Codec
    Format profile              : Main@L4
    Format settings             : CABAC / 4 Ref Frames
    Format settings, CABAC      : Yes
    Format settings, ReFrames   : 4 frames
    Codec ID                    : V_MPEG4/ISO/AVC
    Duration                    : 1 h 34 min
    Bit rate                    : 3 500 kb/s
    Width                       : 1 918 pixels
    Height                      : 800 pixels
    Display aspect ratio        : 2.40:1
    Frame rate mode             : Constant
    Frame rate                  : 23.976 (24000/1001) FPS
    Color space                 : YUV
    Chroma subsampling          : 4:2:0
    Bit depth                   : 8 bits
    Scan type                   : Progressive
    Bits/(Pixel*Frame)          : 0.095
    Stream size                 : 2.31 GiB (81%)
    Title                       : CinemaniaHDD
    Writing library             : x264 core 157 r2935 545de2f
    Encoding settings           : cabac=1 / ref=3 / deblock=1:0:0 / analyse=0x1:0x111 / me=hex / subme=7 / psy=1 / psy_rd=1.00:0.00 / mixed_ref=1 / me_range=16 / chroma_me=1 / trellis=1 / 8x8dct=0 / cqm=0 / deadzone=21,11 / fast_pskip=1 / chroma_qp_offset=-2 / threads=25 / lookahead_threads=4 / sliced_threads=0 / nr=0 / decimate=1 / interlaced=0 / bluray_compat=0 / constrained_intra=0 / bframes=3 / b_pyramid=2 / b_adapt=1 / b_bias=0 / direct=1 / weightb=1 / open_gop=0 / weightp=2 / keyint=240 / keyint_min=24 / scenecut=40 / intra_refresh=0 / rc_lookahead=40 / rc=abr / mbtree=1 / bitrate=3500 / ratetol=1.0 / qcomp=0.60 / qpmin=0 / qpmax=69 / qpstep=4 / vbv_maxrate=20000 / vbv_bufsize=25000 / nal_hrd=none / filler=0 / ip_ratio=1.40 / aq=1:1.00
    Default                     : Yes
    Forced                      : No
    Color range                 : Limited
    Color primaries             : BT.709
    Transfer characteristics    : BT.709
    Matrix coefficients         : BT.709

    Audio #1
    ID                          : 2
    Format                      : AC-3
    Format/Info                 : Audio Coding 3
    Commercial name             : Dolby Digital
    Codec ID                    : A_AC3
    Duration                    : 1 h 34 min
    Bit rate mode               : Constant
    Bit rate                    : 384 kb/s
    Channel(s)                  : 2 channels
    Channel layout              : L R
    Sampling rate               : 48.0 kHz
    Frame rate                  : 31.250 FPS (1536 SPF)
    Bit depth                   : 16 bits
    Compression mode            : Lossy
    Delay relative to video     : -5 ms
    Stream size                 : 259 MiB (9%)
    Title                       : Español latino [CinemaniaHDD]
    Language                    : Spanish
    Service kind                : Complete Main
    Default                     : No
    Forced                      : No

    Audio #2
    ID                          : 3
    Format                      : AC-3
    Format/Info                 : Audio Coding 3
    Commercial name             : Dolby Digital
    Codec ID                    : A_AC3
    Duration                    : 1 h 34 min
    Bit rate mode               : Constant
    Bit rate                    : 448 kb/s
    Channel(s)                  : 6 channels
    Channel layout              : L R C LFE Ls Rs
    Sampling rate               : 48.0 kHz
    Frame rate                  : 31.250 FPS (1536 SPF)
    Bit depth                   : 16 bits
    Compression mode            : Lossy
    Delay relative to video     : -5 ms
    Stream size                 : 303 MiB (10%)
    Title                       : Inglés [CinemaniaHDD]
    Language                    : English
    Service kind                : Complete Main
    Default                     : Yes
    Forced                      : No

    Text
    ID                          : 4
    Format                      : UTF-8
    Codec ID                    : S_TEXT/UTF8
    Codec ID/Info               : UTF-8 Plain Text
    Duration                    : 1 h 33 min
    Bit rate                    : 51 b/s
    Count of elements           : 1166
    Stream size                 : 35.2 KiB (0%)
    Title                       : Español latino [CinemaniaHDD]
    Language                    : Spanish
    Default                     : Yes
    Forced                      : No

    Menu
    00:00:00.000                : :Chapter 1
    00:05:12.521                : :Chapter 2
    00:08:53.616                : :Chapter 3
    00:12:29.207                : :Chapter 4
    00:15:35.852                : :Chapter 5
    00:20:18.634                : :Chapter 6
    00:24:26.840                : :Chapter 7
    00:29:55.127                : :Chapter 8
    00:33:14.659                : :Chapter 9
    00:36:40.949                : :Chapter 10
    00:40:33.389                : :Chapter 11
    00:43:45.164                : :Chapter 12
    00:47:24.300                : :Chapter 13
    00:52:50.876                : :Chapter 14
    00:55:14.478                : :Chapter 15
    00:58:51.903                : :Chapter 16
    00:59:59.721                : :Chapter 17
    01:02:54.896                : :Chapter 18
    01:05:15.495                : :Chapter 19
    01:08:17.176                : :Chapter 20
    01:11:00.339                : :Chapter 21
    01:13:20.438                : :Chapter 22
    01:21:51.198                : :Chapter 23
    01:24:48.625                : :Chapter 24

  • Peso: 2.86 GiB

Sinopsis

Lionel Frost, investigador dedicado a mitos y monstruos, descubre a una extraña y amable criatura, la última en su especie, a la que llama Mr. Link. Junto a Frost, Mr. Link se embarcará en un apasionante y divertido viaje dispuesto a encontrar a sus primos los Yeti, desaparecidos tiempo atrás. Contarán con la ayuda de Adelina Fortnight, una aguerrida aventurera que tiene el único mapa conocido con la ubicación de los Yeti. Juntos afrontarán toda serie de peligros para llegar a su destino.

Ficha técnica

Video trailer de la película

Enlaces de descarga

Rip de Bluray

Descargar Mr. Link (2019) 1080p Latino




Aportes de DPeliculasHDmega la pass es:dpeliculashdmega.org Aportes de CinemaniaHD la pass es:cinemaniahdd.com

Películas relacionadas

descargar Mr. Link (2019) 1080p Latino 1080p 1080p gratis, Mr. Link (2019) 1080p Latino 1080p mega 1 link, Mr. Link (2019) 1080p Latino 1080p pelicula completa, descargar Mr. Link (2019) 1080p Latino 1080p gratis en mega.

Mr. Link (2019) 1080p Latino pelicula full hd, Mr. Link (2019) 1080p Latino mega latino, Mr. Link (2019) 1080p Latino 4k latino, Mr. Link (2019) 1080p Latino pelicula completa, Mr. Link (2019) 1080p Latino descargar gratis, descargar Mr. Link (2019) 1080p Latino pelicula latino, Mr. Link (2019) 1080p Latino 1 link mega, Mr. Link (2019) 1080p Latino 1 link google drive, Mr. Link (2019) 1080p Latino hd 1080p latino.
Comentarios 0