×

¿Problemas para descargar con Mozilla, EDGE? Deshabilita la opción "Abrir vinculos en una pestaña nueva" tal como lo muestra ésta imagen.

Mr. Brooks (2007) REMUX 1080p Latino – CMHDD

226 vistas

Información de Mr. Brooks (2007) REMUX 1080p Latino – CMHDD

Datos de la película

  • Calidad: Full 1080p
  • Audio: Español Latino AC3 5.1 BLURAY - Ingles DTS 5.1 BLURAY
  • Subtitulos: Español Latino PGS
  • Resolución: 1920x1080p
  • Formato: MKV
  • Codec: H.264
  • Encoder: Dracarys
  • Mediainfo: Clic para Mostrar Datos Ver
  • Format                      : Matroska
    Format version              : Version 4
    File size                   : 30.2 GiB
    Duration                    : 2 h 0 min
    Overall bit rate mode       : Variable
    Overall bit rate            : 35.8 Mb/s
    Movie name                  : Mr. Brooks (2007) REMUX 1080p Latino - CMHDD
    Encoded date                : UTC 2021-05-23 04:53:57
    Writing application         : mkvmerge v56.1.0 ('My Friend') 64-bit
    Writing library             : libebml v1.4.2 + libmatroska v1.6.4

    Video
    ID                          : 1
    ID in the original source m : 4113 (0x1011)
    Format                      : AVC
    Format/Info                 : Advanced Video Codec
    Format profile              : High@L4.1
    Format settings             : CABAC / 2 Ref Frames
    Format settings, CABAC      : Yes
    Format settings, Reference  : 2 frames
    Codec ID                    : V_MPEG4/ISO/AVC
    Duration                    : 2 h 0 min
    Bit rate mode               : Variable
    Bit rate                    : 33.0 Mb/s
    Width                       : 1 920 pixels
    Height                      : 1 080 pixels
    Display aspect ratio        : 16:9
    Frame rate mode             : Constant
    Frame rate                  : 23.976 (24000/1001) FPS
    Color space                 : YUV
    Chroma subsampling          : 4:2:0
    Bit depth                   : 8 bits
    Scan type                   : Progressive
    Bits/(Pixel*Frame)          : 0.664
    Stream size                 : 27.8 GiB (92%)
    Default                     : Yes
    Forced                      : No
    Original source medium      : Blu-ray

    Audio #1
    ID                          : 2
    ID in the original source m : 4352 (0x1100)
    Format                      : DTS XLL
    Format/Info                 : Digital Theater Systems
    Commercial name             : DTS-HD Master Audio
    Codec ID                    : A_DTS
    Duration                    : 2 h 0 min
    Bit rate mode               : Variable
    Bit rate                    : 2 295 kb/s
    Channel(s)                  : 6 channels
    Channel layout              : C L R Ls Rs LFE
    Sampling rate               : 48.0 kHz
    Frame rate                  : 93.750 FPS (512 SPF)
    Bit depth                   : 24 bits
    Compression mode            : Lossless
    Stream size                 : 1.94 GiB (6%)
    Language                    : English
    Default                     : No
    Forced                      : No
    Original source medium      : Blu-ray

    Audio #2
    ID                          : 3
    ID in the original source m : 4353 (0x1101)
    Format                      : AC-3
    Format/Info                 : Audio Coding 3
    Commercial name             : Dolby Digital
    Codec ID                    : A_AC3
    Duration                    : 2 h 0 min
    Bit rate mode               : Constant
    Bit rate                    : 448 kb/s
    Channel(s)                  : 6 channels
    Channel layout              : L R C LFE Ls Rs
    Sampling rate               : 48.0 kHz
    Frame rate                  : 31.250 FPS (1536 SPF)
    Compression mode            : Lossy
    Stream size                 : 387 MiB (1%)
    Language                    : Spanish
    Service kind                : Complete Main
    Default                     : Yes
    Forced                      : No
    Original source medium      : Blu-ray

    Text #1
    ID                          : 4
    ID in the original source m : 4609 (0x1201)
    Format                      : PGS
    Muxing mode                 : zlib
    Codec ID                    : S_HDMV/PGS
    Codec ID/Info               : Picture based subtitle format used on BDs/HD-DVDs
    Duration                    : 1 h 53 min
    Bit rate                    : 35.1 kb/s
    Count of elements           : 2603
    Stream size                 : 28.6 MiB (0%)
    Language                    : Spanish
    Default                     : No
    Forced                      : No
    Original source medium      : Blu-ray

    Text #2
    ID                          : 5
    ID in the original source m : 4610 (0x1202)
    Format                      : PGS
    Muxing mode                 : zlib
    Codec ID                    : S_HDMV/PGS
    Codec ID/Info               : Picture based subtitle format used on BDs/HD-DVDs
    Duration                    : 32 min 29 s
    Bit rate                    : 481 b/s
    Count of elements           : 10
    Stream size                 : 115 KiB (0%)
    Language                    : Spanish
    Default                     : No
    Forced                      : No
    Original source medium      : Blu-ray

    Menu
    00:00:00.000                : Chapter 01
    00:02:57.135                : Chapter 02
    00:05:05.096                : Chapter 03
    00:05:56.272                : Chapter 04
    00:07:24.152                : Chapter 05
    00:08:48.528                : Chapter 06
    00:12:08.602                : Chapter 07
    00:14:08.806                : Chapter 08
    00:16:41.792                : Chapter 09
    00:17:58.660                : Chapter 10
    00:23:20.649                : Chapter 11
    00:28:11.523                : Chapter 12
    00:31:51.242                : Chapter 13
    00:34:55.468                : Chapter 14
    00:37:55.147                : Chapter 15
    00:41:13.137                : Chapter 16
    00:50:10.298                : Chapter 17
    00:53:14.649                : Chapter 18
    00:56:19.834                : Chapter 19
    00:59:07.418                : Chapter 20
    01:03:25.718                : Chapter 21
    01:11:44.550                : Chapter 22
    01:15:21.058                : Chapter 23
    01:21:24.754                : Chapter 24
    01:26:39.485                : Chapter 25
    01:30:17.662                : Chapter 26
    01:35:37.314                : Chapter 27
    01:38:29.278                : Chapter 28
    01:41:35.297                : Chapter 29
    01:44:39.940                : Chapter 30
    01:48:03.268                : Chapter 31
    01:54:25.275                : Chapter 32

  • Peso: 30.2 GiB

Sinopsis

Earl Brooks (Kevin Costner), un brillante hombre de negocios que lleva una vida aparentemente tranquila, es en realidad un asesino en serie. Brooks se esfuerza por reprimir sus instintos homicidas, pero su alter ego (William Hurt) se lo impide. Una dura y tenaz detective (Demi Moore) capta la atención del misterioso asesino al que persigue.

Ficha técnica

Video trailer de la película

Enlaces de descarga

Rip de Bluray

Descargar Mr. Brooks (2007) REMUX 1080p Latino – CMHDD


Aportes de DPeliculasHDmega la pass es:dpeliculashdmega.org Aportes de CinemaniaHD la pass es:cinemaniahdd.com
Guardado en : Crimen , Suspenso

Películas relacionadas

  • Transfusion (2023) WEB-DL 4K UHD HDR Latino

    Transfusion (2023) WEB-DL 4K UHD HDR Latino

    2023
    Transfusion (2023) WEB-DL 4K UHD HDR Latino

    1h 45m 2023

    Descargar Transfusion (2023) WEB-DL 4K UHD HDR Latino. Un antiguo agente de las Fuerzas Especiales se...

    Director: Matt Nable

    Género: 4K HDR

    Actores: Trystan Go

  • Transfusion (2023) WEB-DL 1080p Latino

    Transfusion (2023) WEB-DL 1080p Latino

    2023
    Transfusion (2023) WEB-DL 1080p Latino

    1h 45m 2023

    Descargar Transfusion (2023) WEB-DL 1080p Latino. Un antiguo agente de las Fuerzas Especiales se ve empujado...

    Director: Matt Nable

    Género: Crimen

    Actores: Trystan Go

  • Fuerza bruta (2022) HD 1080p Latino

    Fuerza bruta (2022) HD 1080p Latino

    2022
    Fuerza bruta (2022) HD 1080p Latino

    1h 46m 2022

    Decargar Fuerza bruta (2022) HD 1080p Latino. El «policía bestia» Ma Seok-do se dirige a un país...

    Director: Lee Sang-yong

    Género: Acción

    Actores: Yoon Byung-hee

descargar Mr. Brooks (2007) REMUX 1080p Latino – CMHDD Full 1080p 1080p gratis, Mr. Brooks (2007) REMUX 1080p Latino – CMHDD Full 1080p mega 1 link, Mr. Brooks (2007) REMUX 1080p Latino – CMHDD Full 1080p pelicula completa, descargar Mr. Brooks (2007) REMUX 1080p Latino – CMHDD Full 1080p gratis en mega.

Mr. Brooks (2007) REMUX 1080p Latino – CMHDD pelicula full hd, Mr. Brooks (2007) REMUX 1080p Latino – CMHDD mega latino, Mr. Brooks (2007) REMUX 1080p Latino – CMHDD 4k latino, Mr. Brooks (2007) REMUX 1080p Latino – CMHDD pelicula completa, Mr. Brooks (2007) REMUX 1080p Latino – CMHDD descargar gratis, descargar Mr. Brooks (2007) REMUX 1080p Latino – CMHDD pelicula latino, Mr. Brooks (2007) REMUX 1080p Latino – CMHDD 1 link mega, Mr. Brooks (2007) REMUX 1080p Latino – CMHDD 1 link google drive, Mr. Brooks (2007) REMUX 1080p Latino – CMHDD hd 1080p latino.
Comentarios 0