×

¿Problemas para descargar con Mozilla, EDGE? Deshabilita la opción "Abrir vinculos en una pestaña nueva" tal como lo muestra ésta imagen.

Moulin Rouge, amor en rojo (2001) 1080p Latino-CMHDD

41 vistas

Información de Moulin Rouge, amor en rojo (2001) 1080p Latino-CMHDD

Datos de la película

  • Calidad: 1080p
  • Audio: Español Latino AC3 5.1 BLURAY - Ingles AC3 5.1 BLURAY
  • Subtitulos: Español Latino SRT - Ingles SRT
  • Resolución: 1920x800p
  • Formato: MKV
  • Codec: H.264
  • Encoder: CinefiloCool
  • Mediainfo: Clic para Mostrar Datos Ver
  • Moulin.Rouge.2001.Bluray.1080p.x264.Latino-CC@CMHDD.mkv
    Format                      : Matroska
    Format version              : Version 4
    File size                   : 4.89 GiB
    Duration                    : 2 h 7 min
    Overall bit rate mode       : Variable
    Overall bit rate            : 5 482 kb/s
    Movie name                  : Moulin Rouge! (2001) CinemaniaHDD.Net
    Encoded date                : UTC 2024-03-17 22:52:11
    Writing application         : mkvmerge v56.1.0 ('My Friend') 64-bit
    Writing library             : libebml v1.4.2 + libmatroska v1.6.4
    Attachments                 : CINEMANIAHD.png

    Video
    ID                          : 1
    Format                      : AVC
    Format/Info                 : Advanced Video Codec
    Format profile              : High@L4.2
    Format settings             : CABAC / 5 Ref Frames
    Format settings, CABAC      : Yes
    Format settings, Reference  : 5 frames
    Codec ID                    : V_MPEG4/ISO/AVC
    Duration                    : 2 h 7 min
    Bit rate mode               : Variable
    Bit rate                    : 4 583 kb/s
    Width                       : 1 920 pixels
    Height                      : 800 pixels
    Display aspect ratio        : 2.40:1
    Frame rate mode             : Constant
    Frame rate                  : 23.976 (24000/1001) FPS
    Color space                 : YUV
    Chroma subsampling          : 4:2:0
    Bit depth                   : 8 bits
    Scan type                   : Progressive
    Bits/(Pixel*Frame)          : 0.124
    Stream size                 : 4.09 GiB (84%)
    Title                       : HD1080p [CinemaniaHDD]
    Writing library             : x264 core 163 r3059 b684ebe0
    Encoding settings           : cabac=1 / ref=5 / deblock=1:-2:-2 / analyse=0x3:0x133 / me=umh / subme=9 / psy=1 / psy_rd=1.00:0.25 / mixed_ref=1 / me_range=16 / chroma_me=1 / trellis=2 / 8x8dct=1 / cqm=0 / deadzone=6,6 / fast_pskip=1 / chroma_qp_offset=-4 / threads=24 / lookahead_threads=2 / sliced_threads=0 / nr=0 / decimate=0 / interlaced=0 / bluray_compat=0 / constrained_intra=0 / bframes=3 / b_pyramid=2 / b_adapt=2 / b_bias=0 / direct=3 / weightb=1 / open_gop=0 / weightp=2 / keyint=240 / keyint_min=24 / scenecut=40 / intra_refresh=0 / rc_lookahead=60 / rc=crf / mbtree=1 / crf=23.0 / qcomp=0.80 / qpmin=0 / qpmax=69 / qpstep=4 / vbv_maxrate=62500 / vbv_bufsize=78125 / crf_max=0.0 / nal_hrd=vbr / filler=0 / ip_ratio=1.10 / aq=1:0.50
    Default                     : Yes
    Forced                      : Yes
    Color range                 : Limited
    Color primaries             : BT.709
    Transfer characteristics    : BT.709
    Matrix coefficients         : BT.709

    Audio #1
    ID                          : 2
    Format                      : AC-3
    Format/Info                 : Audio Coding 3
    Commercial name             : Dolby Digital
    Codec ID                    : A_AC3
    Duration                    : 2 h 7 min
    Bit rate mode               : Constant
    Bit rate                    : 448 kb/s
    Channel(s)                  : 6 channels
    Channel layout              : L R C LFE Ls Rs
    Sampling rate               : 48.0 kHz
    Frame rate                  : 31.250 FPS (1536 SPF)
    Compression mode            : Lossy
    Delay relative to video     : -5 ms
    Stream size                 : 410 MiB (8%)
    Title                       : Español Latino [CinemaniaHDD]
    Language                    : Spanish
    Service kind                : Complete Main
    Default                     : Yes
    Forced                      : Yes

    Audio #2
    ID                          : 3
    Format                      : AC-3
    Format/Info                 : Audio Coding 3
    Commercial name             : Dolby Digital
    Codec ID                    : A_AC3
    Duration                    : 2 h 7 min
    Bit rate mode               : Constant
    Bit rate                    : 448 kb/s
    Channel(s)                  : 6 channels
    Channel layout              : L R C LFE Ls Rs
    Sampling rate               : 48.0 kHz
    Frame rate                  : 31.250 FPS (1536 SPF)
    Compression mode            : Lossy
    Delay relative to video     : -5 ms
    Stream size                 : 410 MiB (8%)
    Title                       : Ingles [CinemaniaHDD]
    Language                    : English
    Service kind                : Complete Main
    Default                     : No
    Forced                      : No

    Text #1
    ID                          : 4
    Format                      : UTF-8
    Codec ID                    : S_TEXT/UTF8
    Codec ID/Info               : UTF-8 Plain Text
    Duration                    : 2 h 6 min
    Bit rate                    : 17 b/s
    Count of elements           : 559
    Stream size                 : 16.1 KiB (0%)
    Title                       : Forzados-SRT [CinemaniaHDD]
    Language                    : Spanish
    Default                     : Yes
    Forced                      : Yes

    Text #2
    ID                          : 5
    Format                      : UTF-8
    Codec ID                    : S_TEXT/UTF8
    Codec ID/Info               : UTF-8 Plain Text
    Duration                    : 1 h 58 min
    Bit rate                    : 50 b/s
    Count of elements           : 1473
    Stream size                 : 43.9 KiB (0%)
    Title                       : Español-SRT [CinemaniaHDD]
    Language                    : Spanish
    Default                     : No
    Forced                      : No

    Text #3
    ID                          : 6
    Format                      : UTF-8
    Codec ID                    : S_TEXT/UTF8
    Codec ID/Info               : UTF-8 Plain Text
    Duration                    : 1 h 58 min
    Bit rate                    : 49 b/s
    Count of elements           : 1494
    Stream size                 : 42.6 KiB (0%)
    Title                       : Ingles-SRT [CinemaniaHDD]
    Language                    : English
    Default                     : No
    Forced                      : No

    Menu
    00:00:00.000                : Main Titles
    00:01:19.079                : There Was a Boy...
    00:05:32.666                : Meet the Bohemians
    00:10:47.355                : At the Moulin Rouge "You'll Have Fun"
    00:13:05.785                : The Can-Can (Boho's Evade Zidler)
    00:14:12.143                : Satine The Sparkling Diamond
    00:21:02.511                : Satine Falls
    00:25:07.756                : A Poetry Reading
    00:27:36.029                : Your Song
    00:31:24.633                : Introducing the Duke
    00:35:46.478                : The Emergency Rehearsal
    00:40:06.571                : The Pitch
    00:44:31.919                : One Day I'll Fly Away
    00:48:46.382                : The Elephant Love Medley
    00:53:28.789                : The Contract
    00:55:08.013                : On with the Show
    00:57:44.044                : The Duke's Demand
    00:59:36.281                : A Darker Force
    01:01:25.765                : Like A Virgin
    01:05:43.606                : Satine Is Dying
    01:08:01.577                : Come What May
    01:12:44.277                : I Don't Like This Ending
    01:18:08.726                : Le Tango De Roxanne
    01:25:32.586                : We'll Leave Tonight
    01:27:09.182                : I'll Have the Body Killed
    01:29:50.010                : Fool to Believe
    01:32:02.475                : The Show Must Go On
    01:34:57.150                : Satine's Sacrifice
    01:36:20.775                : The Storm Breaks
    01:38:50.341                : Hindi Sad Diamonds
    01:42:24.597                : This Woman Is Yours Now
    01:47:45.459                : Come What May (Reprise)
    01:51:32.895                : Coup D'etat
    01:53:21.294                : The Final Curtain
    01:58:41.156                : Above All Things... Love
    02:00:24.050                : End Titles

  • Peso: 4.89 GiB

Sinopsis

Descargar Moulin Rouge, amor en rojo (2001) 1080p Latino-CMHDD. París, alrededor de 1900. El mundo ha sido conquistado por la revolución de Bohemia. Satine, la estrella más rutilante del Moulin Rouge, encandila a toda la ciudad con sus bailes llenos de sensualidad y su enorme belleza. Atrapada entre el amor de Christian, un joven escritor, y la obsesión del duque, lucha por hacer realidad su sueño de convertirse en actriz. Pero, en un mundo en el que vale todo excepto enamorarse, nada es fácil.

Ficha técnica

Video trailer de la película

Enlaces de descarga

Rip de Bluray

Descargar Moulin Rouge, amor en rojo (2001) 1080p Latino-CMHDD




Aportes de DPeliculasHDmega la pass es:dpeliculashdmega.org Aportes de CinemaniaHD la pass es:cinemaniahdd.com Aportes recientes:cinemaniahdd.net
Guardado en : Drama , HD 1080p , Música , Romance

Películas relacionadas

descargar Moulin Rouge, amor en rojo (2001) 1080p Latino-CMHDD 1080p 1080p gratis, Moulin Rouge, amor en rojo (2001) 1080p Latino-CMHDD 1080p mega 1 link, Moulin Rouge, amor en rojo (2001) 1080p Latino-CMHDD 1080p pelicula completa, descargar Moulin Rouge, amor en rojo (2001) 1080p Latino-CMHDD 1080p gratis en mega.

Moulin Rouge, amor en rojo (2001) 1080p Latino-CMHDD pelicula full hd, Moulin Rouge, amor en rojo (2001) 1080p Latino-CMHDD mega latino, Moulin Rouge, amor en rojo (2001) 1080p Latino-CMHDD 4k latino, Moulin Rouge, amor en rojo (2001) 1080p Latino-CMHDD pelicula completa, Moulin Rouge, amor en rojo (2001) 1080p Latino-CMHDD descargar gratis, descargar Moulin Rouge, amor en rojo (2001) 1080p Latino-CMHDD pelicula latino, Moulin Rouge, amor en rojo (2001) 1080p Latino-CMHDD 1 link mega, Moulin Rouge, amor en rojo (2001) 1080p Latino-CMHDD 1 link google drive, Moulin Rouge, amor en rojo (2001) 1080p Latino-CMHDD hd 1080p latino.
Comentarios 0