×

¿Problemas para descargar con Mozilla, EDGE? Deshabilita la opción "Abrir vinculos en una pestaña nueva" tal como lo muestra ésta imagen.

Huérfanos De Brooklyn (2019) REMUX 1080p Latino

491 vistas

Información de Huérfanos De Brooklyn (2019) REMUX 1080p Latino

Datos de la película

  • Calidad: Full 1080p
  • Audio: Español Latino AC3 5.1 BLURAY - Ingles DTS 5.1 BLURAY
  • Subtitulos: Español Latino PGS - Ingles PGS
  • Resolución: 1920x1080p
  • Formato: MKV
  • Codec: H.264
  • Encoder: CinefiloCool
  • Mediainfo: Clic para Mostrar Datos Ver
  • Huerfanos De Brooklyn (2019) REMUX 1080p Latino-CMHDD.mkv
    Format                      : Matroska
    Format version              : Version 4
    File size                   : 31.7 GiB
    Duration                    : 2 h 24 min
    Overall bit rate mode       : Variable
    Overall bit rate            : 31.5 Mb/s
    Movie name                  : CinemaniaHDD.Net
    Encoded date                : UTC 2020-01-22 17:30:57
    Writing application         : mkvmerge v42.0.0 ('Overtime') 64-bit
    Writing library             : libebml v1.3.10 + libmatroska v1.5.2
    Attachments                 : CINEMANIAHD.png

    Video
    ID                          : 1
    Format                      : AVC
    Format/Info                 : Advanced Video Codec
    Format profile              : High@L4.1
    Format settings             : CABAC / 4 Ref Frames
    Format settings, CABAC      : Yes
    Format settings, ReFrames   : 4 frames
    Codec ID                    : V_MPEG4/ISO/AVC
    Duration                    : 2 h 24 min
    Bit rate mode               : Variable
    Bit rate                    : 28.8 Mb/s
    Maximum bit rate            : 34.0 Mb/s
    Width                       : 1 920 pixels
    Height                      : 1 080 pixels
    Display aspect ratio        : 16:9
    Frame rate mode             : Constant
    Frame rate                  : 23.976 (24000/1001) FPS
    Color space                 : YUV
    Chroma subsampling          : 4:2:0
    Bit depth                   : 8 bits
    Scan type                   : Progressive
    Bits/(Pixel*Frame)          : 0.579
    Stream size                 : 29.0 GiB (92%)
    Title                       : Full HD1080p [REMUX]
    Default                     : Yes
    Forced                      : Yes

    Audio #1
    ID                          : 2
    Format                      : AC-3
    Format/Info                 : Audio Coding 3
    Commercial name             : Dolby Digital
    Codec ID                    : A_AC3
    Duration                    : 2 h 24 min
    Bit rate mode               : Constant
    Bit rate                    : 448 kb/s
    Channel(s)                  : 6 channels
    Channel layout              : L R C LFE Ls Rs
    Sampling rate               : 48.0 kHz
    Frame rate                  : 31.250 FPS (1536 SPF)
    Bit depth                   : 16 bits
    Compression mode            : Lossy
    Stream size                 : 463 MiB (1%)
    Title                       : AC3_5.1_Bluray_Esp
    Language                    : Spanish
    Service kind                : Complete Main
    Default                     : Yes
    Forced                      : Yes

    Audio #2
    ID                          : 3
    Format                      : DTS XLL
    Format/Info                 : Digital Theater Systems
    Commercial name             : DTS-HD Master Audio
    Codec ID                    : A_DTS
    Duration                    : 2 h 24 min
    Bit rate mode               : Variable
    Bit rate                    : 2 163 kb/s
    Channel(s)                  : 6 channels
    Channel layout              : C L R Ls Rs LFE
    Sampling rate               : 48.0 kHz
    Frame rate                  : 93.750 FPS (512 SPF)
    Bit depth                   : 16 bits
    Compression mode            : Lossless
    Stream size                 : 2.18 GiB (7%)
    Title                       : DTS-HD_5.1_Bluray_Eng
    Language                    : English
    Default                     : No
    Forced                      : No

    Text #1
    ID                          : 4
    Format                      : PGS
    Muxing mode                 : zlib
    Codec ID                    : S_HDMV/PGS
    Codec ID/Info               : Picture based subtitle format used on BDs/HD-DVDs
    Duration                    : 2 h 4 min
    Bit rate                    : 1 326 b/s
    Count of elements           : 88
    Stream size                 : 1.18 MiB (0%)
    Title                       : Sub_Forzados [PGS]
    Language                    : Spanish
    Default                     : Yes
    Forced                      : Yes

    Text #2
    ID                          : 5
    Format                      : PGS
    Muxing mode                 : zlib
    Codec ID                    : S_HDMV/PGS
    Codec ID/Info               : Picture based subtitle format used on BDs/HD-DVDs
    Duration                    : 2 h 23 min
    Bit rate                    : 45.9 kb/s
    Count of elements           : 4606
    Stream size                 : 47.1 MiB (0%)
    Title                       : Sub_Esp [PGS]
    Language                    : Spanish
    Default                     : No
    Forced                      : No

    Text #3
    ID                          : 6
    Format                      : PGS
    Muxing mode                 : zlib
    Codec ID                    : S_HDMV/PGS
    Codec ID/Info               : Picture based subtitle format used on BDs/HD-DVDs
    Duration                    : 2 h 16 min
    Bit rate                    : 51.1 kb/s
    Count of elements           : 4934
    Stream size                 : 49.8 MiB (0%)
    Title                       : Sub_Eng [PGS]
    Language                    : English
    Default                     : No
    Forced                      : No

    Text #4
    ID                          : 7
    Format                      : UTF-8
    Codec ID                    : S_TEXT/UTF8
    Codec ID/Info               : UTF-8 Plain Text
    Duration                    : 2 h 4 min
    Bit rate                    : 1 b/s
    Count of elements           : 44
    Stream size                 : 1.57 KiB (0%)
    Title                       : Sub_Forzados
    Language                    : Spanish
    Default                     : No
    Forced                      : No

    Text #5
    ID                          : 8
    Format                      : UTF-8
    Codec ID                    : S_TEXT/UTF8
    Codec ID/Info               : UTF-8 Plain Text
    Duration                    : 2 h 23 min
    Bit rate                    : 76 b/s
    Count of elements           : 2303
    Stream size                 : 80.6 KiB (0%)
    Title                       : Sub_Esp
    Language                    : Spanish
    Default                     : No
    Forced                      : No

    Menu
    00:00:00.000                : en:Chapter 01
    00:09:57.847                : en:Chapter 02
    00:19:20.325                : en:Chapter 03
    00:29:14.586                : en:Chapter 04
    00:38:47.575                : en:Chapter 05
    00:46:33.957                : en:Chapter 06
    00:54:01.821                : en:Chapter 07
    01:02:12.603                : en:Chapter 08
    01:08:42.618                : en:Chapter 09
    01:17:48.205                : en:Chapter 10
    01:26:55.919                : en:Chapter 11
    01:34:07.350                : en:Chapter 12
    01:41:25.704                : en:Chapter 13
    01:50:29.289                : en:Chapter 14
    02:00:21.005                : en:Chapter 15
    02:07:02.823                : en:Chapter 16
    02:17:16.603                : en:Chapter 17

  • Peso: 31.7 GiB

Sinopsis

Descargar Huérfanos De Brooklyn (2019) REMUX 1080p Latino. Nueva York. Años 50. Lionel Essrog es un solitario detective privado, afectado por el Síndrome de Tourette, que se aventura a resolver el asesinato de su mentor y único amigo, Frank Minna.

Ficha técnica

Video trailer de la película

Enlaces de descarga

Rip de Bluray

Descargar Huérfanos De Brooklyn (2019) REMUX 1080p Latino




Aportes de DPeliculasHDmega la pass es:dpeliculashdmega.org Aportes de CinemaniaHD la pass es:cinemaniahdd.com
Guardado en : Drama , Misterio , Remux , Suspenso

Películas relacionadas

  • Un mundo extraño (2022) REMUX 1080p Latino

    Un mundo extraño (2022) REMUX 1080p Latino

    2022
    Un mundo extraño (2022) REMUX 1080p Latino

    1h 42m 2022

    Descargar Un mundo extraño (2022) REMUX 1080p. Un viaje a una tierra inexplorada y traicionera en la...

    Director: Thai Bettistea

    Género: Animación

    Actores: Reed Buck

  • Lobo Vikingo (2022) NF WEB-DL 1080p Latino

    Lobo Vikingo (2022) NF WEB-DL 1080p Latino

    2022
    Lobo Vikingo (2022) NF WEB-DL 1080p Latino

    1h 38m 2022

    Descargar Lobo Vikingo (2022) NF WEB-DL 1080p Latino. Thale (17) acaba de mudarse con sus padres a un...

    Director: Stig Svendsen

    Género: Netflix

    Actores: Vidar Magnussen

  • Stromboli (2022) NF WEB-DL 1080p Latino

    Stromboli (2022) NF WEB-DL 1080p Latino

    2022
    Stromboli (2022) NF WEB-DL 1080p Latino

    1h 26m 2022

    Descargar Stromboli (2022) NF WEB-DL 1080p Latino. Sara, una mujer que se ha divorciado recientemente,...

    Director: Michiel van Erp

    Género: Drama

    Actores: Tim McInnerny

  • Infiesto (2023) NF WEB-DL 1080p Castellano

    Infiesto (2023) NF WEB-DL 1080p Castellano

    2023
    Infiesto (2023) NF WEB-DL 1080p Castellano

    1h 36m 2023

    Descargar Infiesto (2023) NF WEB-DL 1080p Castellano. Mientras el coronavirus trastoca sus vidas, dos...

    Director: Patxi Amezcua

    Género: Crimen

    Actores: Luis Zahera

descargar Huérfanos De Brooklyn (2019) REMUX 1080p Latino Full 1080p 1080p gratis, Huérfanos De Brooklyn (2019) REMUX 1080p Latino Full 1080p mega 1 link, Huérfanos De Brooklyn (2019) REMUX 1080p Latino Full 1080p pelicula completa, descargar Huérfanos De Brooklyn (2019) REMUX 1080p Latino Full 1080p gratis en mega.

Huérfanos De Brooklyn (2019) REMUX 1080p Latino pelicula full hd, Huérfanos De Brooklyn (2019) REMUX 1080p Latino mega latino, Huérfanos De Brooklyn (2019) REMUX 1080p Latino 4k latino, Huérfanos De Brooklyn (2019) REMUX 1080p Latino pelicula completa, Huérfanos De Brooklyn (2019) REMUX 1080p Latino descargar gratis, descargar Huérfanos De Brooklyn (2019) REMUX 1080p Latino pelicula latino, Huérfanos De Brooklyn (2019) REMUX 1080p Latino 1 link mega, Huérfanos De Brooklyn (2019) REMUX 1080p Latino 1 link google drive, Huérfanos De Brooklyn (2019) REMUX 1080p Latino hd 1080p latino.
Comentarios 0