Mortal Kombat (2021) HMAX 4K WEB-DL 2160p Latino

54 vistas
1 estrella2 estrellas3 estrellas4 estrellas5 estrellas (2 votos, promedio: 5,00 de 5)
Cargando...

Información de Mortal Kombat (2021) HMAX 4K WEB-DL 2160p Latino

Datos de la película

  • Calidad: 4K HDR
  • Audio: Español Latino AC3 5.1 WEB-DL - Ingles AC3 5.1 WEB-DL
  • Subtitulos: Español Latino SRT - Ingles SRT
  • Resolución: 3840x2160
  • Formato: MKV
  • Codec: H.265
  • Encoder: cinemaniahdd
  • Mediainfo: Clic para Mostrar Datos Ver
  • Mortal Kombat (2021) HMAX 4K WEB-DL 2160p Latino [CNMNHDD].mkv
    Format                      : Matroska
    Format version              : Version 4
    File size                   : 14.7 GiB
    Duration                    : 1 h 50 min
    Overall bit rate            : 19.1 Mb/s
    Movie name                  : Mortal Kombat (2021) 4K - CinemaniaHDD.Net
    Encoded date                : UTC 2021-04-23 07:43:28
    Writing application         : mkvmerge v51.0.0 ('I Wish') 64-bit
    Writing library             : libebml v1.4.0 + libmatroska v1.6.2

    Video
    ID                          : 1
    Format                      : HEVC
    Format/Info                 : High Efficiency Video Coding
    Format profile              : Main 10@L5@Main
    HDR format                  : SMPTE ST 2086, HDR10 compatible
    Codec ID                    : V_MPEGH/ISO/HEVC
    Duration                    : 1 h 50 min
    Bit rate                    : 17.9 Mb/s
    Width                       : 3 840 pixels
    Height                      : 2 160 pixels
    Display aspect ratio        : 16:9
    Frame rate mode             : Constant
    Frame rate                  : 23.976 (24000/1001) FPS
    Color space                 : YUV
    Chroma subsampling          : 4:2:0
    Bit depth                   : 10 bits
    Bits/(Pixel*Frame)          : 0.090
    Stream size                 : 13.8 GiB (94%)
    Title                       : CinemaniaHDD
    Writing library             : x265 3.4hy:[Linux][GCC 7.5.0][64 bit] 10bit
    Encoding settings           : cpuid=1111039 / frame-threads=1 / wpp / no-pmode / no-pme / no-psnr / no-ssim / log-level=2 / input-csp=1 / input-res=3840x2160 / interlace=0 / total-frames=0 / level-idc=0 / high-tier=1 / uhd-bd=0 / ref=4 / no-allow-non-conformance / repeat-headers / annexb / no-aud / no-hrd / info / hash=0 / no-temporal-layers / no-open-gop / min-keyint=96 / keyint=96 / gop-lookahead=0 / bframes=3 / b-adapt=2 / b-pyramid / bframe-bias=0 / rc-lookahead=25 / lookahead-slices=4 / scenecut=40 / hist-scenecut=0 / radl=0 / no-splice / no-intra-refresh / ctu=64 / min-cu-size=8 / rect / no-amp / max-tu-size=32 / tu-inter-depth=1 / tu-intra-depth=1 / limit-tu=0 / rdoq-level=2 / dynamic-rd=0.00 / no-ssim-rd / signhide / no-tskip / nr-intra=0 / nr-inter=0 / no-constrained-intra / strong-intra-smoothing / max-merge=3 / limit-refs=3 / limit-modes / me=3 / subme=3 / merange=57 / temporal-mvp / no-frame-dup / no-hme / weightp / no-weightb / no-analyze-src-pics / deblock=0:0 / sao / no-sao-non-deblock / rd=4 / selective-sao=4 / no-early-skip / rskip / no-fast-intra / no-tskip-fast / no-cu-lossless / no-b-intra / no-splitrd-skip / rdpenalty=0 / psy-rd=2.00 / psy-rdoq=1.00 / no-rd-refine / no-lossless / cbqpoffs=0 / crqpoffs=0 / rc=abr / bitrate=18000 / qcomp=0.60 / qpstep=4 / stats-write=0 / stats-read=2 / cplxblur=20.0 / qblur=0.5 / vbv-maxrate=24500 / vbv-bufsize=24500 / vbv-init=0.6 / vbv-end=0.6 / vbv-end-fr-adj=0.0 / ipratio=1.40 / pbratio=1.30 / aq-mode=2 / aq-strength=1.00 / cutree / zone-count=0 / no-strict-cbr / qg-size=32 / no-rc-grain / qpmax=69 / qpmin=0 / no-const-vbv / sar=0 / overscan=0 / videoformat=5 / range=0 / colorprim=9 / transfer=16 / colormatrix=9 / chromaloc=0 / display-window=0 / master-display=G(13250,34500)B(7500,3000)R(34000,16000)WP(15635,16450)L(10000000,1) / cll=825,118 / min-luma=0 / max-luma=1023 / log2-max-poc-lsb=8 / vui-timing-info / vui-hrd-info / no-concatenation / slices=1 / no-opt-qp-pps / no-opt-ref-list-length-pps / no-multi-pass-opt-rps / scenecut-bias=0.05 / hist-threshold=0.01 / no-opt-cu-delta-qp / no-aq-motion / hdr10 / no-hdr10-opt / no-dhdr10-opt / no-idr-recovery-sei / analysis-reuse-level=0 / analysis-save-reuse-level=0 / analysis-load-reuse-level=0 / scale-factor=0 / refine-intra=0 / refine-inter=0 / refine-mv=1 / refine-ctu-distortion=0 / no-limit-sao / ctu-info=0 / no-lowpass-dct / refine-analysis-type=0 / copy-pic=1 / max-ausize-factor=1.0 / no-dynamic-refine / no-single-sei / no-hevc-aq / no-svt / no-field / qp-adaptation-range=1.00 / no-scenecut-aware-qpconformance-window-offsets / right=0 / bottom=0 / decoder-max-rate=0
    Default                     : Yes
    Forced                      : No
    Color range                 : Limited
    Color primaries             : BT.2020
    Transfer characteristics    : PQ
    Matrix coefficients         : BT.2020 non-constant
    Mastering display color pri : Display P3
    Mastering display luminance : min: 0.0001 cd/m2, max: 1000 cd/m2
    Maximum Content Light Level : 825 cd/m2
    Maximum Frame-Average Light : 118 cd/m2

    Audio #1
    ID                          : 2
    Format                      : AC-3
    Format/Info                 : Audio Coding 3
    Commercial name             : Dolby Digital
    Codec ID                    : A_AC3
    Duration                    : 1 h 50 min
    Bit rate mode               : Constant
    Bit rate                    : 384 kb/s
    Channel(s)                  : 6 channels
    Channel layout              : L R C LFE Ls Rs
    Sampling rate               : 48.0 kHz
    Frame rate                  : 31.250 FPS (1536 SPF)
    Compression mode            : Lossy
    Stream size                 : 302 MiB (2%)
    Title                       : Español latino [CinemaniaHDD]
    Language                    : Spanish
    Service kind                : Complete Main
    Default                     : Yes
    Forced                      : No

    Audio #2
    ID                          : 3
    Format                      : E-AC-3 JOC
    Format/Info                 : Enhanced AC-3 with Joint Object Coding
    Commercial name             : Dolby Digital Plus with Dolby Atmos
    Codec ID                    : A_EAC3
    Duration                    : 1 h 50 min
    Bit rate mode               : Constant
    Bit rate                    : 768 kb/s
    Channel(s)                  : 6 channels
    Channel layout              : L R C LFE Ls Rs
    Sampling rate               : 48.0 kHz
    Frame rate                  : 31.250 FPS (1536 SPF)
    Compression mode            : Lossy
    Stream size                 : 604 MiB (4%)
    Title                       : Inglés [CinemaniaHDD]
    Language                    : English
    Service kind                : Complete Main
    Default                     : No
    Forced                      : No
    Complexity index            : 16
    Number of dynamic objects   : 15
    Bed channel count           : 1 channel
    Bed channel configuration   : LFE

    Text #1
    ID                          : 4
    Format                      : UTF-8
    Codec ID                    : S_TEXT/UTF8
    Codec ID/Info               : UTF-8 Plain Text
    Duration                    : 1 h 38 min
    Bit rate                    : 44 b/s
    Count of elements           : 1223
    Stream size                 : 32.3 KiB (0%)
    Title                       : Español latino [CC] [CinemaniaHDD]
    Language                    : Spanish
    Default                     : No
    Forced                      : No

    Text #2
    ID                          : 5
    Format                      : UTF-8
    Codec ID                    : S_TEXT/UTF8
    Codec ID/Info               : UTF-8 Plain Text
    Duration                    : 1 h 41 min
    Bit rate                    : 44 b/s
    Count of elements           : 1351
    Stream size                 : 32.7 KiB (0%)
    Title                       : Inglés [CC] [CinemaniaHDD]
    Language                    : English
    Default                     : No
    Forced                      : No

     

  • Peso: 14.7 GiB

Sinopsis

Un boxeador fracasado descubre un secreto familiar que lo lleva a un torneo místico llamado Mortal Kombat donde se encuentra con un grupo de guerreros que luchan hasta la muerte para salvar los reinos del malvado hechicero Shang Tsung.

Ficha técnica

Video trailer de la película

Enlaces de descarga

Rip de Bluray

Descargar Mortal Kombat (2021) HMAX 4K WEB-DL 2160p Latino




Aportes de DPeliculasHDmega la pass es:dpeliculashdmega.org Aportes de CinemaniaHD la pass es:cinemaniahdd.com
Guardado en : 4K HDR , 4K UHD , Acción , Aventura , Fantasía , HBOMAX

Películas relacionadas

  • Ferry (2021) NF WEB-DL 1080p Latino

    Ferry (2021) NF WEB-DL 1080p Latino

    2021
    Ferry (2021) NF WEB-DL 1080p Latino

    5.0 1h 46m 2021

    Antes de levantar su imperio de drogas, Ferry Bouman vuelve a casa con una misión de venganza que pone...

    Director: Cecilia Verheyden

    Género: Acción

    Actores: Yannick van de Velde

  • The Strange House (2021) NF WEB-DL 1080p Latino

    The Strange House (2021) NF WEB-DL 1080p Latino

    2020
    The Strange House (2021) NF WEB-DL 1080p Latino

    5.0 0h 0m 2020

    Cuando una familia se muda de la gran ciudad a un pueblo apartado, dos jóvenes hermanos y sus nuevos...

    Director: Daniel Prochaska

    Género: Aventura

    Actores: Michael Pink

Mortal Kombat (2021) HMAX 4K WEB-DL 2160p Latino pelicula full hd, Mortal Kombat (2021) HMAX 4K WEB-DL 2160p Latino mega latino, Mortal Kombat (2021) HMAX 4K WEB-DL 2160p Latino 4k latino, Mortal Kombat (2021) HMAX 4K WEB-DL 2160p Latino pelicula completa, Mortal Kombat (2021) HMAX 4K WEB-DL 2160p Latino descargar gratis, descargar Mortal Kombat (2021) HMAX 4K WEB-DL 2160p Latino pelicula latino, Mortal Kombat (2021) HMAX 4K WEB-DL 2160p Latino 1 link mega, Mortal Kombat (2021) HMAX 4K WEB-DL 2160p Latino 1 link google drive, Mortal Kombat (2021) HMAX 4K WEB-DL 2160p Latino hd 1080p latino.
Comentarios 4
  • Juanforex - 26 abril, 2021

    Los «enlaces Publicos» estan restringidos, deben aclarar las peliclas que son exclusivos para VIP

    • CinemaniaHDD - 26 abril, 2021

      que eres loco tu?
      los enlaces publicos estas publicos, eres ciego?
      otra cosa es que en tu pais no hay publicidad y por eso no llegas a pasar los acortadores

  • Gonzalo - 25 abril, 2021

    El link free de MEGA ya no esta disponible 🙁

    • CinemaniaHDD - 26 abril, 2021

      resubiendo…