×

¿Problemas para descargar con Mozilla, EDGE? Deshabilita la opción "Abrir vinculos en una pestaña nueva" tal como lo muestra ésta imagen.

Morning Show Mysteries. Death by Design (2019) WEB-DL 1080p Latino

111 vistas

Información de Morning Show Mysteries. Death by Design (2019) WEB-DL 1080p Latino

Datos de la película

  • Calidad: 1080p
  • Audio: Español Latino AC3 2.0 WEB-DL - Ingles AC3 5.1 WEB-DL
  • Subtitulos: Español Latino SRT - Ingles SRT
  • Resolución: 1920x1080
  • Formato: MKV
  • Codec: H.264
  • Encoder: cinemaniahdd
  • Mediainfo: Clic para Mostrar Datos Ver
  • Morning Show Mysteries. Death by Design (2019) WEB-DL 1080p Latino [CNMNHDD].mkv
    Format                      : Matroska
    Format version              : Version 4
    File size                   : 5.54 GiB
    Duration                    : 1 h 27 min
    Overall bit rate mode       : Variable
    Overall bit rate            : 9 014 kb/s
    Movie name                  : Morning Show Mysteries. Death by Design (2019) - CinemaniaHDD.Net
    Encoded date                : UTC 2021-10-13 01:46:01
    Writing application         : mkvmerge v56.1.0 ('My Friend') 64-bit
    Writing library             : libebml v1.4.2 + libmatroska v1.6.4

    Video
    ID                          : 1
    Format                      : AVC
    Format/Info                 : Advanced Video Codec
    Format profile              : High@L4
    Format settings             : CABAC / 4 Ref Frames
    Format settings, CABAC      : Yes
    Format settings, Reference  : 4 frames
    Codec ID                    : V_MPEG4/ISO/AVC
    Duration                    : 1 h 27 min
    Bit rate mode               : Variable
    Bit rate                    : 7 000 kb/s
    Width                       : 1 920 pixels
    Height                      : 1 080 pixels
    Display aspect ratio        : 16:9
    Frame rate mode             : Constant
    Frame rate                  : 23.976 (24000/1001) FPS
    Color space                 : YUV
    Chroma subsampling          : 4:2:0
    Bit depth                   : 8 bits
    Scan type                   : Progressive
    Bits/(Pixel*Frame)          : 0.166
    Stream size                 : 5.07 GiB (91%)
    Title                       : CinemaniaHDD
    Language                    : Spanish
    Default                     : Yes
    Forced                      : No
    Color range                 : Limited
    Color primaries             : BT.709
    Transfer characteristics    : BT.709
    Matrix coefficients         : BT.709

    Audio #1
    ID                          : 2
    Format                      : AC-3
    Format/Info                 : Audio Coding 3
    Commercial name             : Dolby Digital
    Codec ID                    : A_AC3
    Duration                    : 1 h 27 min
    Bit rate mode               : Constant
    Bit rate                    : 384 kb/s
    Channel(s)                  : 2 channels
    Channel layout              : L R
    Sampling rate               : 48.0 kHz
    Frame rate                  : 31.250 FPS (1536 SPF)
    Compression mode            : Lossy
    Stream size                 : 242 MiB (4%)
    Title                       : Español latino [CinemaniaHDD]
    Language                    : Spanish
    Service kind                : Complete Main
    Default                     : Yes
    Forced                      : No

    Audio #2
    ID                          : 3
    Format                      : AC-3
    Format/Info                 : Audio Coding 3
    Commercial name             : Dolby Digital
    Codec ID                    : A_AC3
    Duration                    : 1 h 27 min
    Bit rate mode               : Constant
    Bit rate                    : 384 kb/s
    Channel(s)                  : 6 channels
    Channel layout              : L R C LFE Ls Rs
    Sampling rate               : 48.0 kHz
    Frame rate                  : 31.250 FPS (1536 SPF)
    Compression mode            : Lossy
    Stream size                 : 242 MiB (4%)
    Title                       : Inglés [CinemaniaHDD]
    Language                    : English
    Service kind                : Complete Main
    Default                     : No
    Forced                      : No

    Text #1
    ID                          : 4
    Format                      : UTF-8
    Codec ID                    : S_TEXT/UTF8
    Codec ID/Info               : UTF-8 Plain Text
    Duration                    : 1 h 14 min
    Bit rate                    : 0 b/s
    Count of elements           : 9
    Stream size                 : 235 Bytes (0%)
    Title                       : Forzados [CinemaniaHDD]
    Language                    : Spanish
    Default                     : Yes
    Forced                      : Yes

    Text #2
    ID                          : 5
    Format                      : UTF-8
    Codec ID                    : S_TEXT/UTF8
    Codec ID/Info               : UTF-8 Plain Text
    Duration                    : 1 h 24 min
    Bit rate                    : 72 b/s
    Count of elements           : 1326
    Stream size                 : 45.1 KiB (0%)
    Title                       : Español latino [CinemaniaHDD]
    Language                    : Spanish
    Default                     : No
    Forced                      : No

     

  • Peso: 5.54 GiB

Sinopsis

Billie Blessings y el detective Ian Jackson vuelven a trabajar juntos cuando la hermana gemela de la mejor amiga de Billie es asesinada.

Ficha técnica

Video trailer de la película

Enlaces de descarga

Rip de Bluray

Descargar Morning Show Mysteries. Death by Design (2019) WEB-DL 1080p Latino




Aportes de DPeliculasHDmega la pass es:dpeliculashdmega.org Aportes de CinemaniaHD la pass es:cinemaniahdd.com
Guardado en : Misterio

Películas relacionadas

descargar Morning Show Mysteries. Death by Design (2019) WEB-DL 1080p Latino 1080p 1080p gratis, Morning Show Mysteries. Death by Design (2019) WEB-DL 1080p Latino 1080p mega 1 link, Morning Show Mysteries. Death by Design (2019) WEB-DL 1080p Latino 1080p pelicula completa, descargar Morning Show Mysteries. Death by Design (2019) WEB-DL 1080p Latino 1080p gratis en mega.

Morning Show Mysteries. Death by Design (2019) WEB-DL 1080p Latino pelicula full hd, Morning Show Mysteries. Death by Design (2019) WEB-DL 1080p Latino mega latino, Morning Show Mysteries. Death by Design (2019) WEB-DL 1080p Latino 4k latino, Morning Show Mysteries. Death by Design (2019) WEB-DL 1080p Latino pelicula completa, Morning Show Mysteries. Death by Design (2019) WEB-DL 1080p Latino descargar gratis, descargar Morning Show Mysteries. Death by Design (2019) WEB-DL 1080p Latino pelicula latino, Morning Show Mysteries. Death by Design (2019) WEB-DL 1080p Latino 1 link mega, Morning Show Mysteries. Death by Design (2019) WEB-DL 1080p Latino 1 link google drive, Morning Show Mysteries. Death by Design (2019) WEB-DL 1080p Latino hd 1080p latino.
Comentarios 0