×

¿Problemas para descargar con Mozilla, EDGE? Deshabilita la opción "Abrir vinculos en una pestaña nueva" tal como lo muestra ésta imagen.

James Bond: Misión Espacial (1979) REMUX 1080p Latino

386 vistas

Información de James Bond: Misión Espacial (1979) REMUX 1080p Latino

Datos de la película

  • Calidad: Full 1080p
  • Audio: Español Latino AC3 5.1 BLURAY - Ingles DTS 5.1 BLURAY
  • Subtitulos: Español Latino PGS - Ingles PGS
  • Resolución: 1920x1080p
  • Formato: MKV
  • Codec: H.264
  • Encoder: CinefiloCool
  • Mediainfo: Clic para Mostrar Datos Ver
  • 007 - Mision espacial (1979) REMUX 1080p Latino-CMHDD.mkv
    Format                      : Matroska
    Format version              : Version 4
    File size                   : 23.5 GiB
    Duration                    : 2 h 6 min
    Overall bit rate mode       : Variable
    Overall bit rate            : 26.6 Mb/s
    Movie name                  : Moonraker (1979) CinemaniaHDD.Net
    Encoded date                : UTC 2020-06-04 04:03:06
    Writing application         : mkvmerge v46.0.0 ('No Deeper Escape') 64-bit
    Writing library             : libebml v1.3.10 + libmatroska v1.5.2
    Attachments                 : CINEMANIAHD.png

    Video
    ID                          : 1
    Format                      : AVC
    Format/Info                 : Advanced Video Codec
    Format profile              : High@L4.1
    Format settings             : CABAC / 4 Ref Frames
    Format settings, CABAC      : Yes
    Format settings, Reference  : 4 frames
    Codec ID                    : V_MPEG4/ISO/AVC
    Duration                    : 2 h 6 min
    Bit rate mode               : Variable
    Bit rate                    : 22.0 Mb/s
    Maximum bit rate            : 35.0 Mb/s
    Width                       : 1 920 pixels
    Height                      : 1 080 pixels
    Display aspect ratio        : 16:9
    Frame rate mode             : Constant
    Frame rate                  : 23.976 (24000/1001) FPS
    Color space                 : YUV
    Chroma subsampling          : 4:2:0
    Bit depth                   : 8 bits
    Scan type                   : Progressive
    Bits/(Pixel*Frame)          : 0.443
    Stream size                 : 19.4 GiB (83%)
    Title                       : REMUX 1080p [CinemaniaHDD]
    Language                    : English
    Default                     : Yes
    Forced                      : No
    Color range                 : Limited
    Color primaries             : BT.709
    Transfer characteristics    : BT.709
    Matrix coefficients         : BT.709

    Audio #1
    ID                          : 2
    Format                      : AC-3
    Format/Info                 : Audio Coding 3
    Commercial name             : Dolby Digital
    Codec ID                    : A_AC3
    Duration                    : 2 h 6 min
    Bit rate mode               : Constant
    Bit rate                    : 448 kb/s
    Channel(s)                  : 6 channels
    Channel layout              : L R C LFE Ls Rs
    Sampling rate               : 48.0 kHz
    Frame rate                  : 31.250 FPS (1536 SPF)
    Compression mode            : Lossy
    Stream size                 : 405 MiB (2%)
    Title                       : Español Latino [CinemaniaHDD]
    Language                    : Spanish
    Service kind                : Complete Main
    Default                     : Yes
    Forced                      : No

    Audio #2
    ID                          : 3
    Format                      : DTS XLL
    Format/Info                 : Digital Theater Systems
    Commercial name             : DTS-HD Master Audio
    Codec ID                    : A_DTS
    Duration                    : 2 h 6 min
    Bit rate mode               : Variable
    Bit rate                    : 4 143 kb/s
    Channel(s)                  : 6 channels
    Channel layout              : C L R Ls Rs LFE
    Sampling rate               : 48.0 kHz
    Frame rate                  : 93.750 FPS (512 SPF)
    Bit depth                   : 24 bits
    Compression mode            : Lossless
    Stream size                 : 3.66 GiB (16%)
    Title                       : Ingles [CinemaniaHDD]
    Language                    : English
    Default                     : No
    Forced                      : No

    Text #1
    ID                          : 4
    Format                      : PGS
    Muxing mode                 : zlib
    Codec ID                    : S_HDMV/PGS
    Codec ID/Info               : Picture based subtitle format used on BDs/HD-DVDs
    Duration                    : 2 h 5 min
    Bit rate                    : 18.2 kb/s
    Count of elements           : 1418
    Stream size                 : 16.3 MiB (0%)
    Title                       : Español-PGS [CinemaniaHDD]
    Language                    : Spanish
    Default                     : No
    Forced                      : No

    Text #2
    ID                          : 5
    Format                      : PGS
    Muxing mode                 : zlib
    Codec ID                    : S_HDMV/PGS
    Codec ID/Info               : Picture based subtitle format used on BDs/HD-DVDs
    Duration                    : 2 h 5 min
    Bit rate                    : 23.1 kb/s
    Count of elements           : 2044
    Stream size                 : 20.8 MiB (0%)
    Title                       : Ingles-PGS [CinemaniaHDD]
    Language                    : English
    Default                     : No
    Forced                      : No

    Text #3
    ID                          : 6
    Format                      : UTF-8
    Codec ID                    : S_TEXT/UTF8
    Codec ID/Info               : UTF-8 Plain Text
    Duration                    : 2 h 4 min
    Bit rate                    : 0 b/s
    Count of elements           : 15
    Stream size                 : 400 Bytes (0%)
    Title                       : Forzados-SRT [CinemaniaHDD]
    Language                    : Spanish
    Default                     : Yes
    Forced                      : No

    Text #4
    ID                          : 7
    Format                      : UTF-8
    Codec ID                    : S_TEXT/UTF8
    Codec ID/Info               : UTF-8 Plain Text
    Duration                    : 2 h 5 min
    Bit rate                    : 32 b/s
    Count of elements           : 707
    Stream size                 : 29.4 KiB (0%)
    Title                       : Español-SRT [CinemaniaHDD]
    Language                    : Spanish
    Default                     : No
    Forced                      : No

    Menu
    00:00:00.000                : en:Chapter 01
    00:02:31.401                : en:Chapter 02
    00:05:50.892                : en:Chapter 03
    00:11:25.351                : en:Chapter 04
    00:18:58.554                : en:Chapter 05
    00:24:04.276                : en:Chapter 06
    00:26:06.231                : en:Chapter 07
    00:29:14.335                : en:Chapter 08
    00:32:00.877                : en:Chapter 09
    00:33:42.562                : en:Chapter 10
    00:37:54.313                : en:Chapter 11
    00:41:31.322                : en:Chapter 12
    00:45:41.196                : en:Chapter 13
    00:49:07.152                : en:Chapter 14
    00:56:00.273                : en:Chapter 15
    00:59:30.483                : en:Chapter 16
    01:05:22.251                : en:Chapter 17
    01:10:33.229                : en:Chapter 18
    01:13:00.834                : en:Chapter 19
    01:16:15.070                : en:Chapter 20
    01:18:38.839                : en:Chapter 21
    01:20:36.873                : en:Chapter 22
    01:23:30.046                : en:Chapter 23
    01:27:45.635                : en:Chapter 24
    01:31:30.568                : en:Chapter 25
    01:34:12.271                : en:Chapter 26
    01:38:38.621                : en:Chapter 27
    01:43:14.563                : en:Chapter 28
    01:48:47.979                : en:Chapter 29
    01:53:44.692                : en:Chapter 30
    01:59:23.156                : en:Chapter 31
    02:03:46.961                : en:Chapter 32

  • Peso: 23.5 GiB

Sinopsis

Descargar James Bond: Misión Espacial (1979) REMUX 1080p Latino. El agente secreto James Bond recibe de sus superiores la orden de localizar el paradero de la nave espacial Moonraker, que ha desaparecido misteriosamente. Sus primeras investigaciones le llevan a seguir la pista del millonario Hugo Drax, constructor de la cápsula. Después de investigar en Venecia y en Río de Janeiro, Bond es capturado por Drax, y descubre que el villano posee una base de lanzamiento para cohetes espaciales, con los que se propone esparcir un gas tóxico que acabe con le vida terrestre, siendo ésta la primera fase de un perverso plan que el agente, ayudado por la Doctora Goodhead, intentará frustrar.

Ficha técnica

Video trailer de la película

Enlaces de descarga

Rip de Bluray

Descargar James Bond: Misión Espacial (1979) REMUX 1080p Latino




Aportes de DPeliculasHDmega la pass es:dpeliculashdmega.org Aportes de CinemaniaHD la pass es:cinemaniahdd.com

Películas relacionadas

  • Tren Bala (2022) WEB-DL 4K UHD HDR Latino

    Tren Bala (2022) WEB-DL 4K UHD HDR Latino

    2022
    Tren Bala (2022) WEB-DL 4K UHD HDR Latino

    2h 7m 2022

    Descargar Tren Bala (2022) WEB-DL 4K UHD HDR Latino. El desafortunado asesino "Catarina" está decidido...

    Director: Paul Barry

    Género: 4K HDR

    Actores: Zooey Miyoshi

  • Tren Bala (2022) AMZN WEB-DL 1080p Latino

    Tren Bala (2022) AMZN WEB-DL 1080p Latino

    2022
    Tren Bala (2022) AMZN WEB-DL 1080p Latino

    2h 7m 2022

    Descargar Tren Bala (2022) AMZN WEB-DL 1080p Latino. Cinco asesinos a sueldo se encuentran a bordo de...

    Director: Paul Barry

    Género: Acción

    Actores: Zooey Miyoshi

  • Athena (2022) NF WEB-DL 1080p Latino

    Athena (2022) NF WEB-DL 1080p Latino

    2022
    Athena (2022) NF WEB-DL 1080p Latino

    1h 37m 2022

    Descargar Athena (2022) NF WEB-DL 1080p Latino. Horas después de la trágica muerte de su hermano menor...

    Director: Romain Gavras

    Género: Acción

    Actores: Tarek Haddaji

  • Lou (2022) NF WEB-DL 1080p Latino

    Lou (2022) NF WEB-DL 1080p Latino

    2022
    Lou (2022) NF WEB-DL 1080p Latino

    1h 47m 2022

    Descargar Lou (2022) NF WEB-DL 1080p Latino. Una mujer misteriosa y solitaria lucha contra las inclemencias...

    Director: Anna Foerster

    Género: Acción

    Actores: Toby Levins

descargar James Bond: Misión Espacial (1979) REMUX 1080p Latino Full 1080p 1080p gratis, James Bond: Misión Espacial (1979) REMUX 1080p Latino Full 1080p mega 1 link, James Bond: Misión Espacial (1979) REMUX 1080p Latino Full 1080p pelicula completa, descargar James Bond: Misión Espacial (1979) REMUX 1080p Latino Full 1080p gratis en mega.

James Bond: Misión Espacial (1979) REMUX 1080p Latino pelicula full hd, James Bond: Misión Espacial (1979) REMUX 1080p Latino mega latino, James Bond: Misión Espacial (1979) REMUX 1080p Latino 4k latino, James Bond: Misión Espacial (1979) REMUX 1080p Latino pelicula completa, James Bond: Misión Espacial (1979) REMUX 1080p Latino descargar gratis, descargar James Bond: Misión Espacial (1979) REMUX 1080p Latino pelicula latino, James Bond: Misión Espacial (1979) REMUX 1080p Latino 1 link mega, James Bond: Misión Espacial (1979) REMUX 1080p Latino 1 link google drive, James Bond: Misión Espacial (1979) REMUX 1080p Latino hd 1080p latino.
Comentarios 0