×

¿Problemas para descargar con Mozilla, EDGE? Deshabilita la opción "Abrir vinculos en una pestaña nueva" tal como lo muestra ésta imagen.

James Bond: Misión Espacial (1979) Full HD 1080p Latino

1.041 vistas

Información de James Bond: Misión Espacial (1979) Full HD 1080p Latino

Datos de la película

  • Calidad: Full 1080p
  • Audio: Español Latino AC3 5.1 BLURAY - Ingles DTS 5.1 BLURAY
  • Subtitulos: Español Latino PGS - Ingles PGS
  • Resolución: 1920x1080p
  • Formato: MKV
  • Codec: H.264
  • Encoder: Dracarys
  • Mediainfo: Clic para Mostrar Datos Ver
  • 007 - Mision espacial (1979) Full HD 1080p Latino-CMHDD.mkv
    Format                      : Matroska
    Format version              : Version 4
    File size                   : 8.38 GiB
    Duration                    : 2 h 6 min
    Overall bit rate            : 9 482 kb/s
    Movie name                  : Moonraker (1979) CinemaniaHDD.Net
    Encoded date                : UTC 2020-06-04 04:21:26
    Writing application         : mkvmerge v46.0.0 ('No Deeper Escape') 64-bit
    Writing library             : libebml v1.3.10 + libmatroska v1.5.2
    Attachments                 : CINEMANIAHD.png

    Video
    ID                          : 1
    Format                      : AVC
    Format/Info                 : Advanced Video Codec
    Format profile              : High@L4.1
    Format settings             : CABAC / 4 Ref Frames
    Format settings, CABAC      : Yes
    Format settings, Reference  : 4 frames
    Codec ID                    : V_MPEG4/ISO/AVC
    Duration                    : 2 h 6 min
    Bit rate                    : 7 511 kb/s
    Width                       : 1 920 pixels
    Height                      : 1 080 pixels
    Display aspect ratio        : 16:9
    Frame rate mode             : Constant
    Frame rate                  : 23.976 (24000/1001) FPS
    Color space                 : YUV
    Chroma subsampling          : 4:2:0
    Bit depth                   : 8 bits
    Scan type                   : Progressive
    Bits/(Pixel*Frame)          : 0.151
    Stream size                 : 6.64 GiB (79%)
    Title                       : Full HD1080p [CinemaniaHDD]
    Writing library             : x264 core 157 r2935 545de2f
    Encoding settings           : cabac=1 / ref=4 / deblock=1:0:0 / analyse=0x3:0x133 / me=esa / subme=10 / psy=1 / psy_rd=1.00:0.00 / mixed_ref=1 / me_range=24 / chroma_me=1 / trellis=2 / 8x8dct=1 / cqm=0 / deadzone=21,11 / fast_pskip=1 / chroma_qp_offset=-2 / threads=24 / lookahead_threads=4 / sliced_threads=0 / nr=0 / decimate=1 / interlaced=0 / bluray_compat=0 / constrained_intra=0 / bframes=8 / b_pyramid=2 / b_adapt=2 / b_bias=0 / direct=3 / weightb=1 / open_gop=0 / weightp=2 / keyint=240 / keyint_min=24 / scenecut=40 / intra_refresh=0 / rc_lookahead=60 / rc=crf / mbtree=1 / crf=20.0 / qcomp=0.60 / qpmin=0 / qpmax=69 / qpstep=4 / vbv_maxrate=62500 / vbv_bufsize=78125 / crf_max=0.0 / nal_hrd=none / filler=0 / ip_ratio=1.40 / aq=1:1.00
    Default                     : Yes
    Forced                      : No
    Color range                 : Limited
    Color primaries             : BT.709
    Transfer characteristics    : BT.709
    Matrix coefficients         : BT.709

    Audio #1
    ID                          : 2
    Format                      : AC-3
    Format/Info                 : Audio Coding 3
    Commercial name             : Dolby Digital
    Codec ID                    : A_AC3
    Duration                    : 2 h 6 min
    Bit rate mode               : Constant
    Bit rate                    : 448 kb/s
    Channel(s)                  : 6 channels
    Channel layout              : L R C LFE Ls Rs
    Sampling rate               : 48.0 kHz
    Frame rate                  : 31.250 FPS (1536 SPF)
    Compression mode            : Lossy
    Stream size                 : 405 MiB (5%)
    Title                       : Español Latino [CinemaniaHDD]
    Language                    : Spanish
    Service kind                : Complete Main
    Default                     : Yes
    Forced                      : No

    Audio #2
    ID                          : 3
    Format                      : DTS
    Format/Info                 : Digital Theater Systems
    Codec ID                    : A_DTS
    Duration                    : 2 h 6 min
    Bit rate mode               : Constant
    Bit rate                    : 1 509 kb/s
    Channel(s)                  : 6 channels
    Channel layout              : C L R Ls Rs LFE
    Sampling rate               : 48.0 kHz
    Frame rate                  : 93.750 FPS (512 SPF)
    Bit depth                   : 24 bits
    Compression mode            : Lossy
    Stream size                 : 1.33 GiB (16%)
    Title                       : Ingles [CinemaniaHDD]
    Language                    : English
    Default                     : No
    Forced                      : No

    Text #1
    ID                          : 4
    Format                      : PGS
    Muxing mode                 : zlib
    Codec ID                    : S_HDMV/PGS
    Codec ID/Info               : Picture based subtitle format used on BDs/HD-DVDs
    Duration                    : 2 h 5 min
    Bit rate                    : 18.2 kb/s
    Count of elements           : 1418
    Stream size                 : 16.3 MiB (0%)
    Title                       : Español-PGS [CinemaniaHDD]
    Language                    : Spanish
    Default                     : No
    Forced                      : No

    Text #2
    ID                          : 5
    Format                      : PGS
    Muxing mode                 : zlib
    Codec ID                    : S_HDMV/PGS
    Codec ID/Info               : Picture based subtitle format used on BDs/HD-DVDs
    Duration                    : 2 h 5 min
    Bit rate                    : 23.1 kb/s
    Count of elements           : 2044
    Stream size                 : 20.8 MiB (0%)
    Title                       : Ingles-PGS [CinemaniaHDD]
    Language                    : English
    Default                     : No
    Forced                      : No

    Text #3
    ID                          : 6
    Format                      : UTF-8
    Codec ID                    : S_TEXT/UTF8
    Codec ID/Info               : UTF-8 Plain Text
    Duration                    : 2 h 4 min
    Bit rate                    : 0 b/s
    Count of elements           : 15
    Stream size                 : 400 Bytes (0%)
    Title                       : Forzados-SRT [CinemaniaHDD]
    Language                    : Spanish
    Default                     : Yes
    Forced                      : No

    Text #4
    ID                          : 7
    Format                      : UTF-8
    Codec ID                    : S_TEXT/UTF8
    Codec ID/Info               : UTF-8 Plain Text
    Duration                    : 2 h 5 min
    Bit rate                    : 32 b/s
    Count of elements           : 707
    Stream size                 : 29.4 KiB (0%)
    Title                       : Español-SRT [CinemaniaHDD]
    Language                    : Spanish
    Default                     : No
    Forced                      : No

    Menu
    00:00:00.000                : en:Chapter 01
    00:02:31.401                : en:Chapter 02
    00:05:50.892                : en:Chapter 03
    00:11:25.351                : en:Chapter 04
    00:18:58.554                : en:Chapter 05
    00:24:04.276                : en:Chapter 06
    00:26:06.231                : en:Chapter 07
    00:29:14.335                : en:Chapter 08
    00:32:00.877                : en:Chapter 09
    00:33:42.562                : en:Chapter 10
    00:37:54.313                : en:Chapter 11
    00:41:31.322                : en:Chapter 12
    00:45:41.196                : en:Chapter 13
    00:49:07.152                : en:Chapter 14
    00:56:00.273                : en:Chapter 15
    00:59:30.483                : en:Chapter 16
    01:05:22.251                : en:Chapter 17
    01:10:33.229                : en:Chapter 18
    01:13:00.834                : en:Chapter 19
    01:16:15.070                : en:Chapter 20
    01:18:38.839                : en:Chapter 21
    01:20:36.873                : en:Chapter 22
    01:23:30.046                : en:Chapter 23
    01:27:45.635                : en:Chapter 24
    01:31:30.568                : en:Chapter 25
    01:34:12.271                : en:Chapter 26
    01:38:38.621                : en:Chapter 27
    01:43:14.563                : en:Chapter 28
    01:48:47.979                : en:Chapter 29
    01:53:44.692                : en:Chapter 30
    01:59:23.156                : en:Chapter 31
    02:03:46.961                : en:Chapter 32

  • Peso: 8.38 GiB

Sinopsis

Descargar James Bond: Misión Espacial (1979) Full HD 1080p Latino. El agente secreto James Bond recibe de sus superiores la orden de localizar el paradero de la nave espacial Moonraker, que ha desaparecido misteriosamente. Sus primeras investigaciones le llevan a seguir la pista del millonario Hugo Drax, constructor de la cápsula. Después de investigar en Venecia y en Río de Janeiro, Bond es capturado por Drax, y descubre que el villano posee una base de lanzamiento para cohetes espaciales, con los que se propone esparcir un gas tóxico que acabe con le vida terrestre, siendo ésta la primera fase de un perverso plan que el agente, ayudado por la Doctora Goodhead, intentará frustrar.

RESUBIDO!

Ficha técnica

Video trailer de la película

Enlaces de descarga

Rip de Bluray

Descargar James Bond: Misión Espacial (1979) Full HD 1080p Latino




Aportes de DPeliculasHDmega la pass es:dpeliculashdmega.org Aportes de CinemaniaHD la pass es:cinemaniahdd.com

Películas relacionadas

  • Corazón de tinta (2008) Full HD 1080p Latino

    Corazón de tinta (2008) Full HD 1080p Latino

    2008
    Corazón de tinta (2008) Full HD 1080p Latino

    1h 46m 2008

    Descargar Corazón de tinta (2008) Full HD 1080p Latino. Mortimer “Mo” Folchart y su hija de 12 años,...

    Director: Sharon Mansfield

    Género: Aventura

    Actores: Terry Cavanagh

  • Corazón de tinta (2008) REMUX 1080p Latino

    Corazón de tinta (2008) REMUX 1080p Latino

    2008
    Corazón de tinta (2008) REMUX 1080p Latino

    1h 46m 2008

    Descargar Corazón de tinta (2008) REMUX 1080p Latino. Mortimer “Mo” Folchart y su hija de 12 años,...

    Director: Sharon Mansfield

    Género: Aventura

    Actores: Tereza Srbová

  • Juego de espías (2001) 1080p Latino

    Juego de espías (2001) 1080p Latino

    2001
    Juego de espías (2001) 1080p Latino

    2h 6m 2001

    Descargar Juego de espías (2001) 1080p Latino. Corre el año 1991, y al veterano agente de la CIA Nathan...

    Director: Tony Scott

    Género: Acción

    Actores: Zsolt Zágoni

  • Juego de espías (2001) Full HD 1080p Latino

    Juego de espías (2001) Full HD 1080p Latino

    2001
    Juego de espías (2001) Full HD 1080p Latino

    2h 6m 2001

    Descargar Juego de espías (2001) Full HD 1080p Latino. Corre el año 1991, y al veterano agente de la...

    Director: Tony Scott

    Género: Acción

    Actores: Zsolt Zágoni

descargar James Bond: Misión Espacial (1979) Full HD 1080p Latino Full 1080p 1080p gratis, James Bond: Misión Espacial (1979) Full HD 1080p Latino Full 1080p mega 1 link, James Bond: Misión Espacial (1979) Full HD 1080p Latino Full 1080p pelicula completa, descargar James Bond: Misión Espacial (1979) Full HD 1080p Latino Full 1080p gratis en mega.

James Bond: Misión Espacial (1979) Full HD 1080p Latino pelicula full hd, James Bond: Misión Espacial (1979) Full HD 1080p Latino mega latino, James Bond: Misión Espacial (1979) Full HD 1080p Latino 4k latino, James Bond: Misión Espacial (1979) Full HD 1080p Latino pelicula completa, James Bond: Misión Espacial (1979) Full HD 1080p Latino descargar gratis, descargar James Bond: Misión Espacial (1979) Full HD 1080p Latino pelicula latino, James Bond: Misión Espacial (1979) Full HD 1080p Latino 1 link mega, James Bond: Misión Espacial (1979) Full HD 1080p Latino 1 link google drive, James Bond: Misión Espacial (1979) Full HD 1080p Latino hd 1080p latino.
Comentarios 1
  • ocpgaiden - 26 julio, 2018

    gracias por las peliculas de James Bond (Roger Moore), Saludos