×

¿Problemas para descargar con Mozilla, EDGE? Deshabilita la opción "Abrir vinculos en una pestaña nueva" tal como lo muestra ésta imagen.

Moonfall: Impacto lunar (2022) WEB-DL 4K UHD HDR Latino

2.651 vistas

Información de Moonfall: Impacto lunar (2022) WEB-DL 4K UHD HDR Latino

Datos de la película

  • Calidad: WEBDL
  • Audio: Español Latino AC3 5.1 WEB-DL - Ingles AC3 5.1 WEB-DL
  • Subtitulos: Español Latino SRT- FORZADOS SRT
  • Resolución: 3832x1600p
  • Formato: MKV
  • Codec: HEVC
  • Encoder: Melkor
  • Mediainfo: Clic para Mostrar Datos Ver
  • Moonfall (2022) WEB UHD HDR Latino.mkv
    Format                      : Matroska
    Format version              : Version 4
    File size                   : 23.0 GiB
    Duration                    : 2 h 10 min
    Overall bit rate            : 25.2 Mb/s
    Movie name                  : Moonfall (2022) CinemaniaHDD.Net
    Encoded date                : UTC 2022-04-02 00:23:39
    Writing application         : mkvmerge v56.1.0 ('My Friend') 64-bit
    Writing library             : libebml v1.4.2 + libmatroska v1.6.4
    Attachments                 : CINEMANIAHD.png

    Video
    ID                          : 1
    Format                      : HEVC
    Format/Info                 : High Efficiency Video Coding
    Format profile              : Main 10@L5@High
    HDR format                  : SMPTE ST 2086, HDR10 compatible
    Codec ID                    : V_MPEGH/ISO/HEVC
    Duration                    : 2 h 10 min
    Bit rate                    : 24.0 Mb/s
    Width                       : 3 832 pixels
    Height                      : 1 600 pixels
    Display aspect ratio        : 2.40:1
    Frame rate mode             : Constant
    Frame rate                  : 23.976 (24000/1001) FPS
    Color space                 : YUV
    Chroma subsampling          : 4:2:0 (Type 2)
    Bit depth                   : 10 bits
    Bits/(Pixel*Frame)          : 0.163
    Stream size                 : 21.9 GiB (95%)
    Title                       : Web 2160p HDR [CinemaniaHDD]
    Default                     : Yes
    Forced                      : No
    Color range                 : Limited
    Color primaries             : BT.2020
    Transfer characteristics    : PQ
    Matrix coefficients         : BT.2020 non-constant
    Mastering display color pri : BT.2020
    Mastering display luminance : min: 0.0050 cd/m2, max: 1000 cd/m2
    Maximum Content Light Level : 958 cd/m2
    Maximum Frame-Average Light : 602 cd/m2

    Audio #1
    ID                          : 2
    Format                      : AC-3
    Format/Info                 : Audio Coding 3
    Commercial name             : Dolby Digital
    Codec ID                    : A_AC3
    Duration                    : 2 h 10 min
    Bit rate mode               : Constant
    Bit rate                    : 448 kb/s
    Channel(s)                  : 6 channels
    Channel layout              : L R C LFE Ls Rs
    Sampling rate               : 48.0 kHz
    Frame rate                  : 31.250 FPS (1536 SPF)
    Compression mode            : Lossy
    Delay relative to video     : 14 ms
    Stream size                 : 417 MiB (2%)
    Title                       : Español Latino [CinemaniaHDD]
    Language                    : Spanish
    Service kind                : Complete Main
    Default                     : Yes
    Forced                      : Yes

    Audio #2
    ID                          : 3
    Format                      : E-AC-3 JOC
    Format/Info                 : Enhanced AC-3 with Joint Object Coding
    Commercial name             : Dolby Digital Plus with Dolby Atmos
    Codec ID                    : A_EAC3
    Duration                    : 2 h 10 min
    Bit rate mode               : Constant
    Bit rate                    : 768 kb/s
    Channel(s)                  : 6 channels
    Channel layout              : L R C LFE Ls Rs
    Sampling rate               : 48.0 kHz
    Frame rate                  : 31.250 FPS (1536 SPF)
    Compression mode            : Lossy
    Stream size                 : 716 MiB (3%)
    Title                       : Ingles [CinemaniaHDD]
    Language                    : English
    Service kind                : Complete Main
    Default                     : No
    Forced                      : No
    Complexity index            : 16
    Number of dynamic objects   : 15
    Bed channel count           : 1 channel
    Bed channel configuration   : LFE

    Text #1
    ID                          : 4
    Format                      : UTF-8
    Codec ID                    : S_TEXT/UTF8
    Codec ID/Info               : UTF-8 Plain Text
    Duration                    : 1 h 50 min
    Bit rate                    : 0 b/s
    Count of elements           : 28
    Stream size                 : 781 Bytes (0%)
    Title                       : Forzados-SRT [CinemaniaHDD]
    Language                    : Spanish
    Default                     : Yes
    Forced                      : Yes

    Text #2
    ID                          : 5
    Format                      : UTF-8
    Codec ID                    : S_TEXT/UTF8
    Codec ID/Info               : UTF-8 Plain Text
    Duration                    : 2 h 0 min
    Bit rate                    : 65 b/s
    Count of elements           : 1848
    Stream size                 : 57.6 KiB (0%)
    Title                       : Español-SRT [CinemaniaHDD]
    Language                    : Spanish
    Default                     : No
    Forced                      : No

    Text #3
    ID                          : 6
    Format                      : UTF-8
    Codec ID                    : S_TEXT/UTF8
    Codec ID/Info               : UTF-8 Plain Text
    Duration                    : 2 h 0 min
    Bit rate                    : 69 b/s
    Count of elements           : 2261
    Stream size                 : 61.8 KiB (0%)
    Title                       : Ingles-SRT [CinemaniaHDD]
    Language                    : English
    Default                     : No
    Forced                      : No

  • Peso: 23.0 GiB

Sinopsis

Descargar Moonfall: Impacto lunar (2022) WEB-DL 4K UHD HDR Latino. Una fuerza misteriosa golpea a la Luna fuera de su órbita y la envía en choque directo contra la Tierra a toda velocidad. Unas semanas antes del impacto con el mundo al borde de la aniquilación, la ejecutiva de la NASA y ex astronauta Jo Fowler (Halle Berry) está convencida de tener la clave para salvar nuestro planeta. Pero solo el astronauta Brian Harper (Patrick Wilson) y el teórico conspiranoico KC Houseman (John Bradley) la creen. Estos héroes inverosímiles montarán una misión imposible al espacio, dejando atrás a todos sus seres queridos, para aterrizar en la superficie lunar e intentar salvar a la humanidad, enfrentándose a un misterio de proporciones cósmicas.

Ficha técnica

Video trailer de la película

Enlaces de descarga

Rip de Bluray

Descargar Moonfall: Impacto lunar (2022) WEB-DL 4K UHD HDR Latino




Aportes de DPeliculasHDmega la pass es:dpeliculashdmega.org Aportes de CinemaniaHD la pass es:cinemaniahdd.com

Películas relacionadas

Moonfall: Impacto lunar (2022) WEB-DL 4K UHD HDR Latino pelicula full hd, Moonfall: Impacto lunar (2022) WEB-DL 4K UHD HDR Latino mega latino, Moonfall: Impacto lunar (2022) WEB-DL 4K UHD HDR Latino 4k latino, Moonfall: Impacto lunar (2022) WEB-DL 4K UHD HDR Latino pelicula completa, Moonfall: Impacto lunar (2022) WEB-DL 4K UHD HDR Latino descargar gratis, descargar Moonfall: Impacto lunar (2022) WEB-DL 4K UHD HDR Latino pelicula latino, Moonfall: Impacto lunar (2022) WEB-DL 4K UHD HDR Latino 1 link mega, Moonfall: Impacto lunar (2022) WEB-DL 4K UHD HDR Latino 1 link google drive, Moonfall: Impacto lunar (2022) WEB-DL 4K UHD HDR Latino hd 1080p latino.
Comentarios 0