×

¿Problemas para descargar con Mozilla, EDGE? Deshabilita la opción "Abrir vinculos en una pestaña nueva" tal como lo muestra ésta imagen.

Moonfall: Impacto lunar (2022) PLACEBO Full HD 1080p Latino

1.634 vistas

Información de Moonfall: Impacto lunar (2022) PLACEBO Full HD 1080p Latino

Datos de la película

  • Calidad: Full 1080p
  • Audio: Español Latino AC3 5.1 BLURAY - Ingles DTS 5.1 BLURAY
  • Subtitulos: Español Latino PGS - Ingles PGS
  • Resolución: 1920x1080p
  • Formato: MKV
  • Codec: H.264
  • Encoder: Melkor
  • Mediainfo: Clic para Mostrar Datos Ver
  • Moonfall. Impacto Lunar (2022) PLACEBO 1080p Latino.mkv
    Format                      : Matroska
    Format version              : Version 4
    File size                   : 6.03 GiB
    Duration                    : 2 h 10 min
    Overall bit rate            : 6 625 kb/s
    Movie name                  : Moonfall (2022) CinemaniaHDD.Net
    Encoded date                : UTC 2022-04-22 03:22:58
    Writing application         : mkvmerge v56.1.0 ('My Friend') 64-bit
    Writing library             : libebml v1.4.2 + libmatroska v1.6.4
    Attachments                 : CINEMANIAHD.png

    Video
    ID                          : 1
    Format                      : AVC
    Format/Info                 : Advanced Video Codec
    Format profile              : High@L4.1
    Format settings             : CABAC / 4 Ref Frames
    Format settings, CABAC      : Yes
    Format settings, Reference  : 4 frames
    Codec ID                    : V_MPEG4/ISO/AVC
    Duration                    : 2 h 10 min
    Bit rate                    : 4 453 kb/s
    Width                       : 1 920 pixels
    Height                      : 1 080 pixels
    Display aspect ratio        : 16:9
    Frame rate mode             : Constant
    Frame rate                  : 23.976 (24000/1001) FPS
    Color space                 : YUV
    Chroma subsampling          : 4:2:0
    Bit depth                   : 8 bits
    Scan type                   : Progressive
    Bits/(Pixel*Frame)          : 0.090
    Stream size                 : 4.05 GiB (67%)
    Title                       : Full HD1080p [CinemaniaHDD]
    Writing library             : x264 core 163 r3059 b684ebe0
    Encoding settings           : cabac=1 / ref=4 / deblock=1:0:0 / analyse=0x3:0x133 / me=tesa / subme=11 / psy=1 / psy_rd=1.00:0.00 / mixed_ref=1 / me_range=24 / chroma_me=1 / trellis=2 / 8x8dct=1 / cqm=0 / deadzone=21,11 / fast_pskip=0 / chroma_qp_offset=-2 / threads=24 / lookahead_threads=6 / sliced_threads=0 / nr=0 / decimate=1 / interlaced=0 / bluray_compat=0 / constrained_intra=0 / bframes=16 / b_pyramid=2 / b_adapt=2 / b_bias=0 / direct=3 / weightb=1 / open_gop=0 / weightp=2 / keyint=240 / keyint_min=24 / scenecut=40 / intra_refresh=0 / rc_lookahead=60 / rc=crf / mbtree=1 / crf=18.5 / qcomp=0.60 / qpmin=0 / qpmax=69 / qpstep=4 / vbv_maxrate=62500 / vbv_bufsize=78125 / crf_max=0.0 / nal_hrd=none / filler=0 / ip_ratio=1.40 / aq=1:1.00
    Default                     : Yes
    Forced                      : Yes
    Color range                 : Limited
    Color primaries             : BT.709
    Transfer characteristics    : BT.709
    Matrix coefficients         : BT.709

    Audio #1
    ID                          : 2
    ID in the original source m : 4355 (0x1103)
    Format                      : AC-3
    Format/Info                 : Audio Coding 3
    Commercial name             : Dolby Digital
    Codec ID                    : A_AC3
    Duration                    : 2 h 10 min
    Bit rate mode               : Constant
    Bit rate                    : 640 kb/s
    Channel(s)                  : 6 channels
    Channel layout              : L R C LFE Ls Rs
    Sampling rate               : 48.0 kHz
    Frame rate                  : 31.250 FPS (1536 SPF)
    Compression mode            : Lossy
    Stream size                 : 596 MiB (10%)
    Title                       : Español Latino [CinemaniaHDD]
    Language                    : Spanish
    Service kind                : Complete Main
    Default                     : Yes
    Forced                      : Yes
    Original source medium      : Blu-ray

    Audio #2
    ID                          : 3
    Format                      : DTS
    Format/Info                 : Digital Theater Systems
    Codec ID                    : A_DTS
    Duration                    : 2 h 10 min
    Bit rate mode               : Constant
    Bit rate                    : 1 509 kb/s
    Channel(s)                  : 6 channels
    Channel layout              : C L R Ls Rs LFE
    Sampling rate               : 48.0 kHz
    Frame rate                  : 93.750 FPS (512 SPF)
    Bit depth                   : 16 bits
    Compression mode            : Lossy
    Stream size                 : 1.37 GiB (23%)
    Title                       : Ingles [CinemaniaHDD]
    Language                    : English
    Default                     : No
    Forced                      : No

    Text #1
    ID                          : 4
    Format                      : PGS
    Muxing mode                 : zlib
    Codec ID                    : S_HDMV/PGS
    Codec ID/Info               : Picture based subtitle format used on BDs/HD-DVDs
    Duration                    : 1 h 50 min
    Bit rate                    : 685 b/s
    Count of elements           : 56
    Stream size                 : 554 KiB (0%)
    Title                       : Forzados-PGS [CinemaniaHDD]
    Language                    : Spanish
    Default                     : No
    Forced                      : No

    Text #2
    ID                          : 5
    ID in the original source m : 4609 (0x1201)
    Format                      : PGS
    Muxing mode                 : zlib
    Codec ID                    : S_HDMV/PGS
    Codec ID/Info               : Picture based subtitle format used on BDs/HD-DVDs
    Duration                    : 2 h 0 min
    Bit rate                    : 32.1 kb/s
    Count of elements           : 3396
    Stream size                 : 27.7 MiB (0%)
    Title                       : Español-PGS [CinemaniaHDD]
    Language                    : Spanish
    Default                     : No
    Forced                      : No
    Original source medium      : Blu-ray

    Text #3
    ID                          : 6
    ID in the original source m : 4610 (0x1202)
    Format                      : PGS
    Muxing mode                 : zlib
    Codec ID                    : S_HDMV/PGS
    Codec ID/Info               : Picture based subtitle format used on BDs/HD-DVDs
    Duration                    : 2 h 0 min
    Bit rate                    : 34.7 kb/s
    Count of elements           : 3354
    Stream size                 : 30.0 MiB (0%)
    Title                       : Ingles-PGS [CinemaniaHDD]
    Language                    : English
    Default                     : No
    Forced                      : No
    Original source medium      : Blu-ray

    Text #4
    ID                          : 7
    Format                      : UTF-8
    Codec ID                    : S_TEXT/UTF8
    Codec ID/Info               : UTF-8 Plain Text
    Duration                    : 1 h 50 min
    Bit rate                    : 1 b/s
    Count of elements           : 28
    Stream size                 : 977 Bytes (0%)
    Title                       : Forzados-SRT [CinemaniaHDD]
    Language                    : Spanish
    Default                     : Yes
    Forced                      : Yes

    Text #5
    ID                          : 8
    Format                      : UTF-8
    Codec ID                    : S_TEXT/UTF8
    Codec ID/Info               : UTF-8 Plain Text
    Duration                    : 2 h 0 min
    Bit rate                    : 65 b/s
    Count of elements           : 1852
    Stream size                 : 57.8 KiB (0%)
    Title                       : Español-SRT [CinemaniaHDD]
    Language                    : Spanish
    Default                     : No
    Forced                      : No

    Menu
    00:00:00.000                : Chapter 01
    00:05:58.274                : Chapter 02
    00:13:28.057                : Chapter 03
    00:21:14.564                : Chapter 04
    00:30:58.940                : Chapter 05
    00:38:36.856                : Chapter 06
    00:47:33.725                : Chapter 07
    00:55:51.848                : Chapter 08
    01:03:39.816                : Chapter 09
    01:10:14.710                : Chapter 10
    01:15:38.534                : Chapter 11
    01:22:37.369                : Chapter 12
    01:30:10.780                : Chapter 13
    01:35:47.783                : Chapter 14
    01:45:09.177                : Chapter 15
    01:56:22.976                : Chapter 16

  • Peso: 6.03 GiB

Sinopsis

Descargar Moonfall: Impacto lunar (2022) PLACEBO Full HD 1080p Latino. Una fuerza misteriosa golpea a la Luna fuera de su órbita y la envía en choque directo contra la Tierra a toda velocidad. Unas semanas antes del impacto con el mundo al borde de la aniquilación, la ejecutiva de la NASA y ex astronauta Jo Fowler (Halle Berry) está convencida de tener la clave para salvar nuestro planeta. Pero solo el astronauta Brian Harper (Patrick Wilson) y el teórico conspiranoico KC Houseman (John Bradley) la creen. Estos héroes inverosímiles montarán una misión imposible al espacio, dejando atrás a todos sus seres queridos, para aterrizar en la superficie lunar e intentar salvar a la humanidad, enfrentándose a un misterio de proporciones cósmicas.

Ficha técnica

Video trailer de la película

Enlaces de descarga

Rip de Bluray

Descargar Moonfall: Impacto lunar (2022) PLACEBO Full HD 1080p Latino




Aportes de DPeliculasHDmega la pass es:dpeliculashdmega.org Aportes de CinemaniaHD la pass es:cinemaniahdd.com

Películas relacionadas

descargar Moonfall: Impacto lunar (2022) PLACEBO Full HD 1080p Latino Full 1080p 1080p gratis, Moonfall: Impacto lunar (2022) PLACEBO Full HD 1080p Latino Full 1080p mega 1 link, Moonfall: Impacto lunar (2022) PLACEBO Full HD 1080p Latino Full 1080p pelicula completa, descargar Moonfall: Impacto lunar (2022) PLACEBO Full HD 1080p Latino Full 1080p gratis en mega.

Moonfall: Impacto lunar (2022) PLACEBO Full HD 1080p Latino pelicula full hd, Moonfall: Impacto lunar (2022) PLACEBO Full HD 1080p Latino mega latino, Moonfall: Impacto lunar (2022) PLACEBO Full HD 1080p Latino 4k latino, Moonfall: Impacto lunar (2022) PLACEBO Full HD 1080p Latino pelicula completa, Moonfall: Impacto lunar (2022) PLACEBO Full HD 1080p Latino descargar gratis, descargar Moonfall: Impacto lunar (2022) PLACEBO Full HD 1080p Latino pelicula latino, Moonfall: Impacto lunar (2022) PLACEBO Full HD 1080p Latino 1 link mega, Moonfall: Impacto lunar (2022) PLACEBO Full HD 1080p Latino 1 link google drive, Moonfall: Impacto lunar (2022) PLACEBO Full HD 1080p Latino hd 1080p latino.
Comentarios 1
  • ocpgaiden - 22 abril, 2022

    Gracias por moonfall full hd, saludos