×

¿Problemas para descargar con Mozilla, EDGE? Deshabilita la opción "Abrir vinculos en una pestaña nueva" tal como lo muestra ésta imagen.

Monsters University (2013) WEB-DL 4K-HDR 2160p Latino

1.076 vistas

Información de Monsters University (2013) WEB-DL 4K-HDR 2160p Latino

Datos de la película

  • Calidad:
  • Audio: Se especifica abajo de la Sinopsis
  • Subtitulos: Español Latino SRT- FORZADOS SRT
  • Resolución: 3840x2160
  • Formato: MKV
  • Codec: H.265
  • Encoder: cinemaniahdd
  • Mediainfo: Clic para Mostrar Datos Ver
  • Monsters University (2013) WEB-DL 4K-HDR 2160p Latino.mkv
    Format                      : Matroska
    Format version              : Version 4
    File size                   : 13.0 GiB
    Duration                    : 1 h 43 min
    Overall bit rate            : 17.9 Mb/s
    Movie name                  : Monsters University (2013) - CinemaniaHDD.Net
    Encoded date                : UTC 2020-02-29 22:36:58
    Writing application         : mkvmerge v42.0.0 ('Overtime') 64-bit
    Writing library             : libebml v1.3.10 + libmatroska v1.5.2

    Video
    ID                          : 1
    Format                      : HEVC
    Format/Info                 : High Efficiency Video Coding
    Format profile              : Main 10@L5@High
    Codec ID                    : V_MPEGH/ISO/HEVC
    Duration                    : 1 h 43 min
    Bit rate                    : 16.5 Mb/s
    Width                       : 3 840 pixels
    Height                      : 2 160 pixels
    Display aspect ratio        : 16:9
    Frame rate mode             : Constant
    Frame rate                  : 23.976 (24000/1001) FPS
    Color space                 : YUV
    Chroma subsampling          : 4:2:0
    Bit depth                   : 10 bits
    Bits/(Pixel*Frame)          : 0.083
    Stream size                 : 12.0 GiB (92%)
    Title                       : CinemaniaHDD
    Language                    : English
    Default                     : Yes
    Forced                      : No
    Color range                 : Limited
    Color primaries             : BT.2020
    Transfer characteristics    : PQ
    Matrix coefficients         : BT.2020 non-constant

    Audio #1
    ID                          : 2
    Format                      : AC-3
    Format/Info                 : Audio Coding 3
    Commercial name             : Dolby Digital
    Codec ID                    : A_AC3
    Duration                    : 1 h 43 min
    Bit rate mode               : Constant
    Bit rate                    : 640 kb/s
    Channel(s)                  : 6 channels
    Channel layout              : L R C LFE Ls Rs
    Sampling rate               : 48.0 kHz
    Frame rate                  : 31.250 FPS (1536 SPF)
    Bit depth                   : 16 bits
    Compression mode            : Lossy
    Stream size                 : 475 MiB (4%)
    Title                       : Español latino [CinemaniaHDD]
    Language                    : Spanish
    Service kind                : Complete Main
    Default                     : Yes
    Forced                      : No

    Audio #2
    ID                          : 3
    Format                      : E-AC-3 JOC
    Format/Info                 : Enhanced AC-3 with Joint Object Coding
    Commercial name             : Dolby Digital Plus with Dolby Atmos
    Codec ID                    : A_EAC3
    Duration                    : 1 h 43 min
    Bit rate mode               : Constant
    Bit rate                    : 768 kb/s
    Channel(s)                  : 6 channels
    Channel layout              : L R C LFE Ls Rs
    Sampling rate               : 48.0 kHz
    Frame rate                  : 31.250 FPS (1536 SPF)
    Compression mode            : Lossy
    Stream size                 : 570 MiB (4%)
    Title                       : Inglés [CinemaniaHDD]
    Language                    : English
    Service kind                : Complete Main
    Default                     : No
    Forced                      : No
    Complexity index            : 16
    Number of dynamic objects   : 15
    Bed channel count           : 1 channel
    Bed channel configuration   : LFE

    Text #1
    ID                          : 4
    Format                      : UTF-8
    Codec ID                    : S_TEXT/UTF8
    Codec ID/Info               : UTF-8 Plain Text
    Duration                    : 1 h 31 min
    Bit rate                    : 0 b/s
    Count of elements           : 16
    Stream size                 : 381 Bytes (0%)
    Title                       : Forzados [CinemaniaHDD]
    Language                    : Spanish
    Default                     : Yes
    Forced                      : Yes

    Text #2
    ID                          : 5
    Format                      : UTF-8
    Codec ID                    : S_TEXT/UTF8
    Codec ID/Info               : UTF-8 Plain Text
    Duration                    : 1 h 42 min
    Bit rate                    : 58 b/s
    Count of elements           : 1213
    Stream size                 : 44.0 KiB (0%)
    Title                       : Español latino [CinemaniaHDD]
    Language                    : Spanish
    Default                     : No
    Forced                      : No

     

  • Peso: 13.0 GiB

Sinopsis

Desde que era pequeño, Mike Wazowski ha soñado con ser asustador y sabe que los mejores asustadores estudian en Monstruos University (MU). Pero durante su primer semestre en MU, los planes de Mike se desmoronan cuando se cruza con el listillo de James P. Sullivan, un asustador nato. El descontrolado espíritu competitivo de la pareja hace que los dos sean expulsados del programa de asustadores de la Universidad. Entonces se dan cuenta de que si quieren cumplir sus sueños, tienen que trabajar en equipo junto con un grupo de monstruos marginados.

Español Latino AC3 5.1 Bluray – Ingles E-AC3 5.1 WEB-DL

Ficha técnica

Video trailer de la película

Enlaces de descarga

Rip de Bluray

Descargar Monsters University (2013) WEB-DL 4K-HDR 2160p Latino




Aportes de DPeliculasHDmega la pass es:dpeliculashdmega.org Aportes de CinemaniaHD la pass es:cinemaniahdd.com
Guardado en : 4K HDR , 4K UHD , Animación , Familia

Películas relacionadas

descargar Monsters University (2013) WEB-DL 4K-HDR 2160p Latino 1080p gratis, Monsters University (2013) WEB-DL 4K-HDR 2160p Latino mega 1 link, Monsters University (2013) WEB-DL 4K-HDR 2160p Latino pelicula completa, descargar Monsters University (2013) WEB-DL 4K-HDR 2160p Latino gratis en mega.

Monsters University (2013) WEB-DL 4K-HDR 2160p Latino pelicula full hd, Monsters University (2013) WEB-DL 4K-HDR 2160p Latino mega latino, Monsters University (2013) WEB-DL 4K-HDR 2160p Latino 4k latino, Monsters University (2013) WEB-DL 4K-HDR 2160p Latino pelicula completa, Monsters University (2013) WEB-DL 4K-HDR 2160p Latino descargar gratis, descargar Monsters University (2013) WEB-DL 4K-HDR 2160p Latino pelicula latino, Monsters University (2013) WEB-DL 4K-HDR 2160p Latino 1 link mega, Monsters University (2013) WEB-DL 4K-HDR 2160p Latino 1 link google drive, Monsters University (2013) WEB-DL 4K-HDR 2160p Latino hd 1080p latino.
Comentarios 0