×

¿Problemas para descargar con Mozilla, EDGE? Deshabilita la opción "Abrir vinculos en una pestaña nueva" tal como lo muestra ésta imagen.

Monsters, Inc. (2001) WEB-DL 4K-HDR 2160p Latino

1.427 vistas

Información de Monsters, Inc. (2001) WEB-DL 4K-HDR 2160p Latino

Datos de la película

  • Calidad: 4K HDR
  • Audio: Se especifica abajo de la Sinopsis
  • Subtitulos: Español Latino SRT- FORZADOS SRT
  • Resolución: 3840x2160
  • Formato: MKV
  • Codec: H.265
  • Encoder: cinemaniahdd
  • Mediainfo: Clic para Mostrar Datos Ver
  • Monsters, Inc. (2001) WEB-DL 4K-HDR 2160p Latino.mkv
    Format                      : Matroska
    Format version              : Version 4
    File size                   : 11.3 GiB
    Duration                    : 1 h 32 min
    Overall bit rate            : 17.4 Mb/s
    Movie name                  : Monsters, Inc. (2001) - CinemaniaHDD.Net
    Encoded date                : UTC 2020-02-29 22:23:14
    Writing application         : mkvmerge v42.0.0 ('Overtime') 64-bit
    Writing library             : libebml v1.3.10 + libmatroska v1.5.2

    Video
    ID                          : 1
    Format                      : HEVC
    Format/Info                 : High Efficiency Video Coding
    Format profile              : Main 10@L5@High
    Codec ID                    : V_MPEGH/ISO/HEVC
    Duration                    : 1 h 32 min
    Bit rate                    : 16.5 Mb/s
    Width                       : 3 840 pixels
    Height                      : 2 160 pixels
    Display aspect ratio        : 16:9
    Frame rate mode             : Constant
    Frame rate                  : 23.976 (24000/1001) FPS
    Color space                 : YUV
    Chroma subsampling          : 4:2:0
    Bit depth                   : 10 bits
    Bits/(Pixel*Frame)          : 0.083
    Stream size                 : 10.7 GiB (95%)
    Title                       : CinemaniaHDD
    Language                    : English
    Default                     : Yes
    Forced                      : No
    Color range                 : Limited
    Color primaries             : BT.2020
    Transfer characteristics    : PQ
    Matrix coefficients         : BT.2020 non-constant

    Audio #1
    ID                          : 2
    Format                      : AC-3
    Format/Info                 : Audio Coding 3
    Commercial name             : Dolby Digital
    Codec ID                    : A_AC3
    Duration                    : 1 h 32 min
    Bit rate mode               : Constant
    Bit rate                    : 640 kb/s
    Channel(s)                  : 6 channels
    Channel layout              : L R C LFE Ls Rs
    Sampling rate               : 48.0 kHz
    Frame rate                  : 31.250 FPS (1536 SPF)
    Bit depth                   : 16 bits
    Compression mode            : Lossy
    Stream size                 : 424 MiB (4%)
    Title                       : Español latino [CinemaniaHDD]
    Language                    : Spanish
    Service kind                : Complete Main
    Default                     : Yes
    Forced                      : No

    Audio #2
    ID                          : 3
    Format                      : E-AC-3
    Format/Info                 : Enhanced AC-3
    Commercial name             : Dolby Digital Plus
    Codec ID                    : A_EAC3
    Duration                    : 1 h 32 min
    Bit rate mode               : Constant
    Bit rate                    : 256 kb/s
    Channel(s)                  : 6 channels
    Channel layout              : L R C LFE Ls Rs
    Sampling rate               : 48.0 kHz
    Frame rate                  : 31.250 FPS (1536 SPF)
    Compression mode            : Lossy
    Stream size                 : 170 MiB (1%)
    Title                       : Inglés [CinemaniaHDD]
    Language                    : English
    Service kind                : Complete Main
    Default                     : No
    Forced                      : No

    Text #1
    ID                          : 4
    Format                      : UTF-8
    Codec ID                    : S_TEXT/UTF8
    Codec ID/Info               : UTF-8 Plain Text
    Duration                    : 1 h 15 min
    Bit rate                    : 0 b/s
    Count of elements           : 12
    Stream size                 : 313 Bytes (0%)
    Title                       : Forzados [CinemaniaHDD]
    Language                    : Spanish
    Default                     : Yes
    Forced                      : Yes

    Text #2
    ID                          : 5
    Format                      : UTF-8
    Codec ID                    : S_TEXT/UTF8
    Codec ID/Info               : UTF-8 Plain Text
    Duration                    : 1 h 23 min
    Bit rate                    : 60 b/s
    Count of elements           : 1088
    Stream size                 : 36.8 KiB (0%)
    Title                       : Español latino [CinemaniaHDD]
    Language                    : Spanish
    Default                     : No
    Forced                      : No

     

  • Peso: 11.3 GiB

Sinopsis

Monstruos, S.A. es la mayor empresa de miedo del mundo de los monstruos y James P. Sullivan es uno de sus mejores Asustadores. Sullivan es un imponente personaje recubierto de piel azul con lunares de color violeta que luce dos cuernos, y al que sus amigos llaman Sulley. Mike Wazowski, su Ayudante Asustador, además de su mejor amigo y compañero de habitación, es un monstruo verde, testarudo, tuerto y muy divertido. Asustar a los niños no es un trabajo tan fácil ya que los monstruos creen que son altamente tóxicos y no pueden entrar en contacto con ellos de ninguna manera. El ecléctico reparto también incluye al presidente y consejero delegado de la empresa, un monstruo en forma de cangrejo llamado Henry J. Waternoose, a la recepcionista Celia, una adorable monstrua con cabeza de serpiente, y al sarcástico camaleón llamado Randall Boggs, que quiere arrebatar el título de Mejor Asustador a Sulley.

Español Latino AC3 5.1 Bluray – Ingles E-AC3 5.1 WEB-DL

Ficha técnica

Video trailer de la película

Enlaces de descarga

Rip de Bluray

Descargar Monsters, Inc. (2001) WEB-DL 4K-HDR 2160p Latino




Aportes de DPeliculasHDmega la pass es:dpeliculashdmega.org Aportes de CinemaniaHD la pass es:cinemaniahdd.com
Guardado en : 4K HDR , 4K UHD , Animación , Comedia , Familia

Películas relacionadas

  • Mi amigo el dragón (2016) Full HD 1080p Latino

    Mi amigo el dragón (2016) Full HD 1080p Latino

    2016
    Mi amigo el dragón (2016) Full HD 1080p Latino

    1h 43m 2016

    Descargar Mi amigo el dragón (2016) Full HD 1080p Latino. Durante años el Sr. Meacham, un viejo tallador...

    Director: Joe Nolan

    Género: Aventura

    Actores: William J. Rawbone

  • Mi amigo el dragón (2016) REMUX 1080p Latino

    Mi amigo el dragón (2016) REMUX 1080p Latino

    2016
    Mi amigo el dragón (2016) REMUX 1080p Latino

    1h 43m 2016

    Descargar Mi amigo el dragón (2016) REMUX 1080p Latino. Durante años el Sr. Meacham, un viejo tallador...

    Director: Joe Nolan

    Género: Aventura

    Actores: William J. Rawbone

  • Un mundo extraño (2022) HD 1080p Latino

    Un mundo extraño (2022) HD 1080p Latino

    2022
    Un mundo extraño (2022) HD 1080p Latino

    1h 42m 2022

    Descargar Un mundo extraño (2022) HD 1080p Latino. Los Clades son una familia conocida en todo el mundo,...

    Director: Thai Bettistea

    Género: Animación

    Actores: Reed Buck

descargar Monsters, Inc. (2001) WEB-DL 4K-HDR 2160p Latino 4K HDR 1080p gratis, Monsters, Inc. (2001) WEB-DL 4K-HDR 2160p Latino 4K HDR mega 1 link, Monsters, Inc. (2001) WEB-DL 4K-HDR 2160p Latino 4K HDR pelicula completa, descargar Monsters, Inc. (2001) WEB-DL 4K-HDR 2160p Latino 4K HDR gratis en mega.

Monsters, Inc. (2001) WEB-DL 4K-HDR 2160p Latino pelicula full hd, Monsters, Inc. (2001) WEB-DL 4K-HDR 2160p Latino mega latino, Monsters, Inc. (2001) WEB-DL 4K-HDR 2160p Latino 4k latino, Monsters, Inc. (2001) WEB-DL 4K-HDR 2160p Latino pelicula completa, Monsters, Inc. (2001) WEB-DL 4K-HDR 2160p Latino descargar gratis, descargar Monsters, Inc. (2001) WEB-DL 4K-HDR 2160p Latino pelicula latino, Monsters, Inc. (2001) WEB-DL 4K-HDR 2160p Latino 1 link mega, Monsters, Inc. (2001) WEB-DL 4K-HDR 2160p Latino 1 link google drive, Monsters, Inc. (2001) WEB-DL 4K-HDR 2160p Latino hd 1080p latino.
Comentarios 0