×

¿Problemas para descargar con Mozilla, EDGE? Deshabilita la opción "Abrir vinculos en una pestaña nueva" tal como lo muestra ésta imagen.

Monsters, Inc. (2001) REMUX 4K HDR Latino – CMHDD

194 vistas

Información de Monsters, Inc. (2001) REMUX 4K HDR Latino – CMHDD

Datos de la película

  • Calidad: 4K HDR
  • Audio: Se especifica abajo de la Sinopsis
  • Subtitulos: Español Latino PGS
  • Resolución: 3840x2160p
  • Formato: MKV
  • Codec: H.264
  • Encoder: Dracarys
  • Mediainfo: Clic para Mostrar Datos Ver
  • Format                      : Matroska
    Format version              : Version 4
    File size                   : 37.5 GiB
    Duration                    : 1 h 32 min
    Overall bit rate mode       : Variable
    Overall bit rate            : 57.8 Mb/s
    Movie name                  : Monsters, Inc. (2001) REMUX 4K HDR Latino - CMHDD
    Encoded date                : UTC 2022-05-15 19:10:52
    Writing application         : mkvmerge v17.0.0 ('Be Ur Friend') 64-bit
    Writing library             : libebml v1.3.5 + libmatroska v1.4.8

    Video
    ID                          : 1
    Format                      : HEVC
    Format/Info                 : High Efficiency Video Coding
    Format profile              : Main 10@L5.1@High
    HDR format                  : SMPTE ST 2086, HDR10 compatible
    Codec ID                    : V_MPEGH/ISO/HEVC
    Duration                    : 1 h 32 min
    Bit rate                    : 48.6 Mb/s
    Width                       : 3 840 pixels
    Height                      : 2 160 pixels
    Display aspect ratio        : 16:9
    Frame rate mode             : Constant
    Frame rate                  : 23.976 (23976/1000) FPS
    Original frame rate         : 23.976 (24000/1001) FPS
    Color space                 : YUV
    Chroma subsampling          : 4:2:0 (Type 2)
    Bit depth                   : 10 bits
    Bits/(Pixel*Frame)          : 0.244
    Stream size                 : 31.5 GiB (84%)
    Writing library             : ATEME Titan File 3.9.0 (4.9.0.0)        
    Default                     : Yes
    Forced                      : No
    Color range                 : Limited
    Color primaries             : BT.2020
    Transfer characteristics    : PQ
    Matrix coefficients         : BT.2020 non-constant
    Mastering display color pri : Display P3
    Mastering display luminance : min: 0.0000 cd/m2, max: 1000 cd/m2

    Audio #1
    ID                          : 2
    Format                      : MLP FBA 16-ch
    Format/Info                 : Meridian Lossless Packing FBA with 16-channel presentation
    Commercial name             : Dolby TrueHD with Dolby Atmos
    Codec ID                    : A_TRUEHD
    Duration                    : 1 h 32 min
    Bit rate mode               : Variable
    Bit rate                    : 6 904 kb/s
    Maximum bit rate            : 8 211 kb/s
    Channel(s)                  : 8 channels
    Channel layout              : L R C LFE Ls Rs Lb Rb
    Sampling rate               : 48.0 kHz
    Frame rate                  : 1 200.000 FPS (40 SPF)
    Compression mode            : Lossless
    Stream size                 : 4.45 GiB (12%)
    Language                    : English
    Default                     : No
    Forced                      : No
    Number of dynamic objects   : 13
    Bed channel count           : 1 channel
    Bed channel configuration   : LFE

    Audio #2
    ID                          : 3
    Format                      : AC-3
    Format/Info                 : Audio Coding 3
    Commercial name             : Dolby Digital
    Format settings             : Dolby Surround EX
    Codec ID                    : A_AC3
    Duration                    : 1 h 32 min
    Bit rate mode               : Constant
    Bit rate                    : 640 kb/s
    Channel(s)                  : 6 channels
    Channel layout              : L R C LFE Ls Rs
    Sampling rate               : 48.0 kHz
    Frame rate                  : 31.250 FPS (1536 SPF)
    Compression mode            : Lossy
    Stream size                 : 422 MiB (1%)
    Language                    : English
    Service kind                : Complete Main
    Default                     : No
    Forced                      : No

    Audio #3
    ID                          : 4
    Format                      : E-AC-3
    Format/Info                 : Enhanced AC-3
    Commercial name             : Dolby Digital Plus
    Format profile              : Blu-ray Disc
    Codec ID                    : A_EAC3
    Duration                    : 1 h 32 min
    Bit rate mode               : Constant
    Bit rate                    : 1 024 kb/s
    Channel(s)                  : 6 channels
    Channel(s)_Original         : 8 channels
    ChannelLayout_Original      : L R C LFE Ls Rs Lrs Rrs
    Sampling rate               : 48.0 kHz
    Frame rate                  : 31.250 FPS (1536 SPF)
    Compression mode            : Lossy
    Stream size                 : 675 MiB (2%)
    Language                    : English
    Service kind                : Complete Main
    Default                     : No
    Forced                      : No

    Audio #4
    ID                          : 5
    Format                      : AC-3
    Format/Info                 : Audio Coding 3
    Commercial name             : Dolby Digital
    Format settings             : Dolby Surround EX
    Codec ID                    : A_AC3
    Duration                    : 1 h 32 min
    Bit rate mode               : Constant
    Bit rate                    : 640 kb/s
    Channel(s)                  : 6 channels
    Channel layout              : L R C LFE Ls Rs
    Sampling rate               : 48.0 kHz
    Frame rate                  : 31.250 FPS (1536 SPF)
    Compression mode            : Lossy
    Stream size                 : 424 MiB (1%)
    Language                    : Spanish
    Service kind                : Complete Main
    Default                     : Yes
    Forced                      : No

    Text
    ID                          : 6
    Format                      : PGS
    Muxing mode                 : zlib
    Codec ID                    : S_HDMV/PGS
    Codec ID/Info               : Picture based subtitle format used on BDs/HD-DVDs
    Duration                    : 1 h 32 min
    Bit rate                    : 33.1 kb/s
    Count of elements           : 2184
    Stream size                 : 21.8 MiB (0%)
    Language                    : Spanish
    Default                     : No
    Forced                      : No

    Menu
    00:00:00.000                : en:Chapter 1
    00:01:33.760                : en:Chapter 2
    00:03:08.271                : en:Chapter 3
    00:04:51.791                : en:Chapter 4
    00:07:17.603                : en:Chapter 5
    00:09:12.176                : en:Chapter 6
    00:10:44.268                : en:Chapter 7
    00:11:54.463                : en:Chapter 8
    00:17:26.461                : en:Chapter 9
    00:20:06.747                : en:Chapter 10
    00:22:04.447                : en:Chapter 11
    00:25:49.088                : en:Chapter 12
    00:28:35.630                : en:Chapter 13
    00:31:07.156                : en:Chapter 14
    00:34:50.629                : en:Chapter 15
    00:36:56.297                : en:Chapter 16
    00:38:50.953                : en:Chapter 17
    00:40:28.550                : en:Chapter 18
    00:43:34.945                : en:Chapter 19
    00:45:30.394                : en:Chapter 20
    00:48:08.093                : en:Chapter 21
    00:50:37.826                : en:Chapter 22
    00:54:41.945                : en:Chapter 23
    00:57:30.113                : en:Chapter 24
    01:03:42.693                : en:Chapter 25
    01:06:25.689                : en:Chapter 26
    01:07:27.042                : en:Chapter 27
    01:13:52.803                : en:Chapter 28
    01:17:50.248                : en:Chapter 29
    01:21:25.588                : en:Chapter 30
    01:24:08.626                : en:Chapter 31
    01:25:06.893                : en:Chapter 32

  • Peso: 37.5 GiB

Sinopsis

Monsters Inc. es la mayor empresa de miedo del mundo, y James P. Sullivan es uno de sus mejores empleados. Asustar a los niños no es un trabajo fácil, ya que todos creen que los niños son tóxicos y no pueden tener contacto con ellos. Pero un día una niña se cuela sin querer en la empresa, provocando el caos.

 

Latino; AC3 5.1  –  Inglés; True HD 7.1

Ficha técnica

Video trailer de la película

Enlaces de descarga

Rip de Bluray

Descargar Monsters, Inc. (2001) REMUX 4K HDR Latino – CMHDD


Aportes de DPeliculasHDmega la pass es:dpeliculashdmega.org Aportes de CinemaniaHD la pass es:cinemaniahdd.com
Guardado en : Animación , Comedia , Familia

Películas relacionadas

descargar Monsters, Inc. (2001) REMUX 4K HDR Latino – CMHDD 4K HDR 1080p gratis, Monsters, Inc. (2001) REMUX 4K HDR Latino – CMHDD 4K HDR mega 1 link, Monsters, Inc. (2001) REMUX 4K HDR Latino – CMHDD 4K HDR pelicula completa, descargar Monsters, Inc. (2001) REMUX 4K HDR Latino – CMHDD 4K HDR gratis en mega.

Monsters, Inc. (2001) REMUX 4K HDR Latino – CMHDD pelicula full hd, Monsters, Inc. (2001) REMUX 4K HDR Latino – CMHDD mega latino, Monsters, Inc. (2001) REMUX 4K HDR Latino – CMHDD 4k latino, Monsters, Inc. (2001) REMUX 4K HDR Latino – CMHDD pelicula completa, Monsters, Inc. (2001) REMUX 4K HDR Latino – CMHDD descargar gratis, descargar Monsters, Inc. (2001) REMUX 4K HDR Latino – CMHDD pelicula latino, Monsters, Inc. (2001) REMUX 4K HDR Latino – CMHDD 1 link mega, Monsters, Inc. (2001) REMUX 4K HDR Latino – CMHDD 1 link google drive, Monsters, Inc. (2001) REMUX 4K HDR Latino – CMHDD hd 1080p latino.
Comentarios 0