×

¿Problemas para descargar con Mozilla, EDGE? Deshabilita la opción "Abrir vinculos en una pestaña nueva" tal como lo muestra ésta imagen.

Monster Trucks (2016) Full HD 1080p Latino

2.849 vistas

Información de Monster Trucks (2016) Full HD 1080p Latino

Datos de la película

  • Calidad: Full 1080p
  • Audio: Español Latino AC3 5.1 BLURAY - Ingles DTS 5.1 BLURAY
  • Subtitulos: Español Latino PGS - Ingles PGS
  • Resolución: 1920x1080p
  • Formato: MKV
  • Codec: H.264
  • Encoder: CinefiloCool
  • Mediainfo: Clic para Mostrar Datos Ver
  • Monster Trucks (2016) Full HD 1080p Latino-CMHDD.mkv
    Format                      : Matroska
    Format version              : Version 4
    File size                   : 4.35 GiB
    Duration                    : 1 h 44 min
    Overall bit rate            : 5 941 kb/s
    Movie name                  : Monster Trucks (2016) CinemaniaHDD.Net
    Encoded date                : UTC 2023-02-12 21:38:11
    Writing application         : mkvmerge v56.1.0 ('My Friend') 64-bit
    Writing library             : libebml v1.4.2 + libmatroska v1.6.4
    Attachments                 : CINEMANIAHD.png

    Video
    ID                          : 1
    Format                      : AVC
    Format/Info                 : Advanced Video Codec
    Format profile              : High@L4.1
    Format settings             : CABAC / 4 Ref Frames
    Format settings, CABAC      : Yes
    Format settings, Reference  : 4 frames
    Codec ID                    : V_MPEG4/ISO/AVC
    Duration                    : 1 h 44 min
    Bit rate                    : 3 776 kb/s
    Width                       : 1 920 pixels
    Height                      : 1 080 pixels
    Display aspect ratio        : 16:9
    Frame rate mode             : Constant
    Frame rate                  : 23.976 (24000/1001) FPS
    Color space                 : YUV
    Chroma subsampling          : 4:2:0
    Bit depth                   : 8 bits
    Scan type                   : Progressive
    Bits/(Pixel*Frame)          : 0.076
    Stream size                 : 2.76 GiB (64%)
    Title                       : Full HD1080p [CinemaniaHDD]
    Writing library             : x264 core 163 r3059 b684ebe0
    Encoding settings           : cabac=1 / ref=4 / deblock=1:0:0 / analyse=0x3:0x133 / me=tesa / subme=11 / psy=1 / psy_rd=1.00:0.00 / mixed_ref=1 / me_range=24 / chroma_me=1 / trellis=2 / 8x8dct=1 / cqm=0 / deadzone=21,11 / fast_pskip=0 / chroma_qp_offset=-2 / threads=24 / lookahead_threads=6 / sliced_threads=0 / nr=0 / decimate=1 / interlaced=0 / bluray_compat=0 / constrained_intra=0 / bframes=16 / b_pyramid=2 / b_adapt=2 / b_bias=0 / direct=3 / weightb=1 / open_gop=0 / weightp=2 / keyint=240 / keyint_min=24 / scenecut=40 / intra_refresh=0 / rc_lookahead=60 / rc=crf / mbtree=1 / crf=20.0 / qcomp=0.60 / qpmin=0 / qpmax=69 / qpstep=4 / vbv_maxrate=62500 / vbv_bufsize=78125 / crf_max=0.0 / nal_hrd=none / filler=0 / ip_ratio=1.40 / aq=1:1.00
    Default                     : Yes
    Forced                      : Yes
    Color range                 : Limited
    Color primaries             : BT.709
    Transfer characteristics    : BT.709
    Matrix coefficients         : BT.709

    Audio #1
    ID                          : 2
    Format                      : AC-3
    Format/Info                 : Audio Coding 3
    Commercial name             : Dolby Digital
    Codec ID                    : A_AC3
    Duration                    : 1 h 44 min
    Bit rate mode               : Constant
    Bit rate                    : 640 kb/s
    Channel(s)                  : 6 channels
    Channel layout              : L R C LFE Ls Rs
    Sampling rate               : 48.0 kHz
    Frame rate                  : 31.250 FPS (1536 SPF)
    Compression mode            : Lossy
    Delay relative to video     : 14 ms
    Stream size                 : 479 MiB (11%)
    Title                       : Español Latino [CinemaniaHDD]
    Language                    : Spanish
    Service kind                : Complete Main
    Default                     : Yes
    Forced                      : Yes

    Audio #2
    ID                          : 3
    Format                      : DTS
    Format/Info                 : Digital Theater Systems
    Codec ID                    : A_DTS
    Duration                    : 1 h 44 min
    Bit rate mode               : Constant
    Bit rate                    : 1 509 kb/s
    Channel(s)                  : 6 channels
    Channel layout              : C L R Ls Rs LFE
    Sampling rate               : 48.0 kHz
    Frame rate                  : 93.750 FPS (512 SPF)
    Bit depth                   : 16 bits
    Compression mode            : Lossy
    Stream size                 : 1.10 GiB (25%)
    Title                       : Ingles [CinemaniaHDD]
    Language                    : English
    Default                     : No
    Forced                      : No

    Text #1
    ID                          : 4
    Format                      : PGS
    Muxing mode                 : zlib
    Codec ID                    : S_HDMV/PGS
    Codec ID/Info               : Picture based subtitle format used on BDs/HD-DVDs
    Duration                    : 1 h 35 min
    Bit rate                    : 22.3 kb/s
    Count of elements           : 1628
    Stream size                 : 15.2 MiB (0%)
    Title                       : Español-PGS [CinemaniaHDD]
    Language                    : Spanish
    Default                     : No
    Forced                      : No

    Text #2
    ID                          : 5
    Format                      : PGS
    Muxing mode                 : zlib
    Codec ID                    : S_HDMV/PGS
    Codec ID/Info               : Picture based subtitle format used on BDs/HD-DVDs
    Duration                    : 1 h 35 min
    Bit rate                    : 26.0 kb/s
    Count of elements           : 1974
    Stream size                 : 17.7 MiB (0%)
    Title                       : Ingles-PGS [CinemaniaHDD]
    Language                    : English
    Default                     : No
    Forced                      : No

    Text #3
    ID                          : 6
    Format                      : UTF-8
    Codec ID                    : S_TEXT/UTF8
    Codec ID/Info               : UTF-8 Plain Text
    Duration                    : 1 h 34 min
    Bit rate                    : 0 b/s
    Count of elements           : 2
    Stream size                 : 51.0 Bytes (0%)
    Title                       : Forzados-SRT [CinemaniaHDD]
    Language                    : Spanish
    Default                     : Yes
    Forced                      : Yes

    Text #4
    ID                          : 7
    Format                      : UTF-8
    Codec ID                    : S_TEXT/UTF8
    Codec ID/Info               : UTF-8 Plain Text
    Duration                    : 1 h 35 min
    Bit rate                    : 36 b/s
    Count of elements           : 814
    Stream size                 : 25.2 KiB (0%)
    Title                       : Español-SRT [CinemaniaHDD]
    Language                    : Spanish
    Default                     : No
    Forced                      : No

    Menu
    00:00:00.000                : 00:00:00.000
    00:06:09.369                : 00:06:09.369
    00:11:33.735                : 00:11:33.735
    00:18:58.971                : 00:18:58.971
    00:24:50.489                : 00:24:50.489
    00:34:57.137                : 00:34:57.137
    00:43:16.928                : 00:43:16.928
    00:47:54.872                : 00:47:54.872
    00:53:32.000                : 00:53:32.000
    00:58:24.668                : 00:58:24.668
    01:05:10.698                : 01:05:10.698
    01:13:26.652                : 01:13:26.652
    01:20:47.634                : 01:20:47.634
    01:26:58.505                : 01:26:58.505
    01:33:13.671                : 01:33:13.671
    01:38:44.669                : 01:38:44.669

  • Peso: 4.35 GB

Sinopsis

Descargar Monster Trucks (2016) Full HD 1080p Latino. Buscando una forma de evadirse de la vida y la ciudad en la que vive, el joven Tripp (Lucas Till), un estudiante de instituto, construye un ‘Monster Truck’ con piezas de desguace. Pero entonces Creech, un monstruo procedente de un pantano y adicto a la velocidad, viene a visitarle… Basada en la línea de juguetes de Hasbro, esta adaptación ha sido descrita como un cruce entre «Los Goonies» y «Transformers».

RESUBIDA NUEVO RIP VERSION PLACEBO!!!

Ficha técnica

Video trailer de la película

Enlaces de descarga

Rip de Bluray

Descargar Monster Trucks (2016) Full HD 1080p Latino




Aportes de DPeliculasHDmega la pass es:dpeliculashdmega.org Aportes de CinemaniaHD la pass es:cinemaniahdd.com Aportes recientes:cinemaniahdd.net

Películas relacionadas

descargar Monster Trucks (2016) Full HD 1080p Latino Full 1080p 1080p gratis, Monster Trucks (2016) Full HD 1080p Latino Full 1080p mega 1 link, Monster Trucks (2016) Full HD 1080p Latino Full 1080p pelicula completa, descargar Monster Trucks (2016) Full HD 1080p Latino Full 1080p gratis en mega.

Monster Trucks (2016) Full HD 1080p Latino pelicula full hd, Monster Trucks (2016) Full HD 1080p Latino mega latino, Monster Trucks (2016) Full HD 1080p Latino 4k latino, Monster Trucks (2016) Full HD 1080p Latino pelicula completa, Monster Trucks (2016) Full HD 1080p Latino descargar gratis, descargar Monster Trucks (2016) Full HD 1080p Latino pelicula latino, Monster Trucks (2016) Full HD 1080p Latino 1 link mega, Monster Trucks (2016) Full HD 1080p Latino 1 link google drive, Monster Trucks (2016) Full HD 1080p Latino hd 1080p latino.
Comentarios 6