Monster Pets: A Hotel Transylvania Short (2021) AMZN WebDL 1080p Latino

56 vistas
1 estrella2 estrellas3 estrellas4 estrellas5 estrellas (1 votos, promedio: 5,00 de 5)
Cargando...

Información de Monster Pets: A Hotel Transylvania Short (2021) AMZN WebDL 1080p Latino

Datos de la película

  • Calidad: WEBDL
  • Audio: Se especifica abajo de la Sinopsis
  • Subtitulos: Español Latino SRT- FORZADOS SRT
  • Resolución: 1920x1040p
  • Formato: MKV
  • Codec: H.264
  • Encoder: Melkor
  • Mediainfo: Clic para Mostrar Datos Ver
  • Monster Pets (2021) AMZN WebDL 1080p Latino[CMHDD].mkv
    Format                      : Matroska
    Format version              : Version 4
    File size                   : 391 MiB
    Duration                    : 5 min 51 s
    Overall bit rate            : 9 320 kb/s
    Movie name                  : Monster Pets: A Hotel Transylvania Short (2021) CinemaniaHDD.Net
    Encoded date                : UTC 2021-04-25 06:51:51
    Writing application         : mkvmerge v56.1.0 ('My Friend') 64-bit
    Writing library             : libebml v1.4.2 + libmatroska v1.6.4
    Attachments                 : CINEMANIAHD.png

    Video
    ID                          : 1
    Format                      : AVC
    Format/Info                 : Advanced Video Codec
    Format profile              : High@L4
    Format settings             : CABAC / 4 Ref Frames
    Format settings, CABAC      : Yes
    Format settings, Reference  : 4 frames
    Codec ID                    : V_MPEG4/ISO/AVC
    Duration                    : 5 min 51 s
    Bit rate mode               : Constant
    Bit rate                    : 7 398 kb/s
    Nominal bit rate            : 10 000 kb/s
    Width                       : 1 920 pixels
    Height                      : 1 040 pixels
    Display aspect ratio        : 1.85:1
    Frame rate mode             : Constant
    Frame rate                  : 23.976 (24000/1001) FPS
    Color space                 : YUV
    Chroma subsampling          : 4:2:0
    Bit depth                   : 8 bits
    Scan type                   : Progressive
    Bits/(Pixel*Frame)          : 0.155
    Stream size                 : 310 MiB (79%)
    Title                       : WEB HD1080p [CinemaniaHDD]
    Language                    : English
    Default                     : Yes
    Forced                      : Yes
    Color range                 : Limited
    Color primaries             : BT.709
    Transfer characteristics    : BT.709
    Matrix coefficients         : BT.709

    Audio #1
    ID                          : 2
    Format                      : E-AC-3
    Format/Info                 : Enhanced AC-3
    Commercial name             : Dolby Digital Plus
    Codec ID                    : A_EAC3
    Duration                    : 5 min 51 s
    Bit rate mode               : Constant
    Bit rate                    : 640 kb/s
    Channel(s)                  : 6 channels
    Channel layout              : L R C LFE Ls Rs
    Sampling rate               : 48.0 kHz
    Frame rate                  : 31.250 FPS (1536 SPF)
    Compression mode            : Lossy
    Stream size                 : 26.8 MiB (7%)
    Title                       : Español Latino [CinemaniaHDD]
    Language                    : Spanish
    Service kind                : Complete Main
    Default                     : Yes
    Forced                      : Yes

    Audio #2
    ID                          : 3
    Format                      : E-AC-3
    Format/Info                 : Enhanced AC-3
    Commercial name             : Dolby Digital Plus
    Codec ID                    : A_EAC3
    Duration                    : 5 min 51 s
    Bit rate mode               : Constant
    Bit rate                    : 640 kb/s
    Channel(s)                  : 6 channels
    Channel layout              : L R C LFE Ls Rs
    Sampling rate               : 48.0 kHz
    Frame rate                  : 31.250 FPS (1536 SPF)
    Compression mode            : Lossy
    Stream size                 : 26.8 MiB (7%)
    Title                       : Ingles [CinemaniaHDD]
    Language                    : English
    Service kind                : Complete Main
    Default                     : No
    Forced                      : No

    Audio #3
    ID                          : 4
    Format                      : AC-3
    Format/Info                 : Audio Coding 3
    Commercial name             : Dolby Digital
    Codec ID                    : A_AC3
    Duration                    : 5 min 51 s
    Bit rate mode               : Constant
    Bit rate                    : 640 kb/s
    Channel(s)                  : 6 channels
    Channel layout              : L R C LFE Ls Rs
    Sampling rate               : 48.0 kHz
    Frame rate                  : 31.250 FPS (1536 SPF)
    Compression mode            : Lossy
    Stream size                 : 26.8 MiB (7%)
    Title                       : Español Latino AC3 [CinemaniaHDD]
    Language                    : Spanish
    Service kind                : Complete Main
    Default                     : No
    Forced                      : No

    Text #1
    ID                          : 5
    Format                      : UTF-8
    Codec ID                    : S_TEXT/UTF8
    Codec ID/Info               : UTF-8 Plain Text
    Duration                    : 5 min 1 s
    Bit rate                    : 1 b/s
    Count of elements           : 2
    Stream size                 : 46.0 Bytes (0%)
    Title                       : Forzados-SRT [CinemaniaHDD]
    Language                    : Spanish
    Default                     : Yes
    Forced                      : Yes

    Text #2
    ID                          : 6
    Format                      : UTF-8
    Codec ID                    : S_TEXT/UTF8
    Codec ID/Info               : UTF-8 Plain Text
    Duration                    : 5 min 1 s
    Bit rate                    : 31 b/s
    Count of elements           : 58
    Stream size                 : 1.15 KiB (0%)
    Title                       : Español-SRT [CinemaniaHDD]
    Language                    : Spanish
    Default                     : No
    Forced                      : No

  • Peso: 391 MB

Sinopsis

Descargar Monster Pets: A Hotel Transylvania Short (2021) AMZN WebDL 1080p Latino. En Monster Pets, el perro Tinkles hace todo lo posible por conseguir un amigo.

Español Latino EAC3 & AC3 5.1 AMZN – Ingles EAC3 5.1 AMZN

Ficha técnica

Video trailer de la película

Enlaces de descarga

Rip de Bluray

Descargar Monster Pets: A Hotel Transylvania Short (2021) AMZN WebDL 1080p Latino




Aportes de DPeliculasHDmega la pass es:dpeliculashdmega.org Aportes de CinemaniaHD la pass es:cinemaniahdd.com
Guardado en : Animación , Comedia , Fantasía

Películas relacionadas

  • Nadie (2021) REMUX 1080p Latino

    Nadie (2021) REMUX 1080p Latino

    2021
    Nadie (2021) REMUX 1080p Latino

    5.0 1h 32m 2021

    Descargar Nadie (2021) REMUX 1080p Latino. Hutch Mansell, un padre de familia que aguanta con resignación...

    Director: Ilya Naishuller

    Género: Acción

    Actores: Yulia Guzhva

  • Locked Down (2021) HMAX WEB-DL 1080p Latino

    Locked Down (2021) HMAX WEB-DL 1080p Latino

    2021
    Locked Down (2021) HMAX WEB-DL 1080p Latino

    5.0 1h 58m 2021

    Linda y Paxton son una pareja con problemas pero que deciden pausar su separación con un objetivo: aprovecharse...

    Director: Sam Barry-Parker

    Género: Comedia

    Actores: Tallulah Greive

  • Due Date (2010) Full HD 1080p Latino – CMHDD

    Due Date (2010) Full HD 1080p Latino – CMHDD

    2010
    Due Date (2010) Full HD 1080p Latino – CMHDD

    0.0 1h 35m 2010

    Los protagonistas de la cinta, Robert Downey Jr. y Zach Galifianakis, son dos inusuales compañeros que...

    Director: Todd Phillips

    Género: Comedia

    Actores: Zach Galifianakis

Monster Pets: A Hotel Transylvania Short (2021) AMZN WebDL 1080p Latino pelicula full hd, Monster Pets: A Hotel Transylvania Short (2021) AMZN WebDL 1080p Latino mega latino, Monster Pets: A Hotel Transylvania Short (2021) AMZN WebDL 1080p Latino 4k latino, Monster Pets: A Hotel Transylvania Short (2021) AMZN WebDL 1080p Latino pelicula completa, Monster Pets: A Hotel Transylvania Short (2021) AMZN WebDL 1080p Latino descargar gratis, descargar Monster Pets: A Hotel Transylvania Short (2021) AMZN WebDL 1080p Latino pelicula latino, Monster Pets: A Hotel Transylvania Short (2021) AMZN WebDL 1080p Latino 1 link mega, Monster Pets: A Hotel Transylvania Short (2021) AMZN WebDL 1080p Latino 1 link google drive, Monster Pets: A Hotel Transylvania Short (2021) AMZN WebDL 1080p Latino hd 1080p latino.
Comentarios 0