Monster Hunter: la cacería comienza (2020) HD 1080p Latino

261 vistas
1 estrella2 estrellas3 estrellas4 estrellas5 estrellas (Ninguna valoración todavía)
Cargando...

Información de Monster Hunter: la cacería comienza (2020) HD 1080p Latino

Datos de la película

  • Calidad: 1080p
  • Audio: Español Latino AC3 5.1 BLURAY - Ingles AC3 5.1 BLURAY
  • Subtitulos: Español Latino SRT- FORZADOS SRT
  • Resolución: 1920x804p
  • Formato: MKV
  • Codec: H.264
  • Encoder: Melkor
  • Mediainfo: Clic para Mostrar Datos Ver
  • Monster Hunter (2020) HD 1080p Latino.mkv
    Format                      : Matroska
    Format version              : Version 4
    File size                   : 4.48 GiB
    Duration                    : 1 h 43 min
    Overall bit rate            : 6 218 kb/s
    Movie name                  : Monster Hunter (2020) CinemaniaHDD.Net
    Encoded date                : UTC 2021-02-20 08:15:33
    Writing application         : mkvmerge v51.0.0 ('I Wish') 64-bit
    Writing library             : libebml v1.4.0 + libmatroska v1.6.2
    Attachments                 : CINEMANIAHD.png

    Video
    ID                          : 1
    Format                      : AVC
    Format/Info                 : Advanced Video Codec
    Format profile              : High@L4.1
    Format settings             : CABAC / 5 Ref Frames
    Format settings, CABAC      : Yes
    Format settings, Reference  : 5 frames
    Codec ID                    : V_MPEG4/ISO/AVC
    Duration                    : 1 h 43 min
    Bit rate                    : 5 127 kb/s
    Width                       : 1 920 pixels
    Height                      : 804 pixels
    Display aspect ratio        : 2.40:1
    Frame rate mode             : Constant
    Frame rate                  : 23.976 (24000/1001) FPS
    Color space                 : YUV
    Chroma subsampling          : 4:2:0
    Bit depth                   : 8 bits
    Scan type                   : Progressive
    Bits/(Pixel*Frame)          : 0.139
    Stream size                 : 3.69 GiB (82%)
    Title                       : HD1080p [CinemaniaHDD]
    Writing library             : x264 core 157 r2935 545de2f
    Encoding settings           : cabac=1 / ref=5 / deblock=1:-1:-1 / analyse=0x3:0x133 / me=umh / subme=9 / psy=1 / psy_rd=1.00:0.15 / mixed_ref=1 / me_range=16 / chroma_me=1 / trellis=2 / 8x8dct=1 / cqm=0 / deadzone=21,11 / fast_pskip=1 / chroma_qp_offset=-3 / threads=24 / lookahead_threads=2 / sliced_threads=0 / nr=0 / decimate=1 / interlaced=0 / bluray_compat=0 / constrained_intra=0 / bframes=3 / b_pyramid=2 / b_adapt=2 / b_bias=0 / direct=3 / weightb=1 / open_gop=0 / weightp=2 / keyint=240 / keyint_min=24 / scenecut=40 / intra_refresh=0 / rc_lookahead=60 / rc=crf / mbtree=1 / crf=20.0 / qcomp=0.60 / qpmin=0 / qpmax=69 / qpstep=4 / vbv_maxrate=62500 / vbv_bufsize=78125 / crf_max=0.0 / nal_hrd=none / filler=0 / ip_ratio=1.40 / aq=1:1.00
    Default                     : Yes
    Forced                      : Yes
    Color range                 : Limited
    Color primaries             : BT.709
    Transfer characteristics    : BT.709
    Matrix coefficients         : BT.709

    Audio #1
    ID                          : 2
    Format                      : AC-3
    Format/Info                 : Audio Coding 3
    Commercial name             : Dolby Digital
    Codec ID                    : A_AC3
    Duration                    : 1 h 43 min
    Bit rate mode               : Constant
    Bit rate                    : 640 kb/s
    Channel(s)                  : 6 channels
    Channel layout              : L R C LFE Ls Rs
    Sampling rate               : 48.0 kHz
    Frame rate                  : 31.250 FPS (1536 SPF)
    Compression mode            : Lossy
    Delay relative to video     : -5 ms
    Stream size                 : 472 MiB (10%)
    Title                       : Español Latino [CinemaniaHDD]
    Language                    : Spanish
    Service kind                : Complete Main
    Default                     : Yes
    Forced                      : Yes

    Audio #2
    ID                          : 3
    Format                      : AC-3
    Format/Info                 : Audio Coding 3
    Commercial name             : Dolby Digital
    Codec ID                    : A_AC3
    Duration                    : 1 h 43 min
    Bit rate mode               : Constant
    Bit rate                    : 448 kb/s
    Channel(s)                  : 6 channels
    Channel layout              : L R C LFE Ls Rs
    Sampling rate               : 48.0 kHz
    Frame rate                  : 31.250 FPS (1536 SPF)
    Compression mode            : Lossy
    Delay relative to video     : -5 ms
    Stream size                 : 330 MiB (7%)
    Title                       : Ingles [CinemaniaHDD]
    Language                    : English
    Service kind                : Complete Main
    Default                     : No
    Forced                      : No

    Text #1
    ID                          : 4
    Format                      : UTF-8
    Codec ID                    : S_TEXT/UTF8
    Codec ID/Info               : UTF-8 Plain Text
    Duration                    : 1 h 32 min
    Bit rate                    : 0 b/s
    Count of elements           : 10
    Stream size                 : 322 Bytes (0%)
    Title                       : Forzados-SRT [CinemaniaHDD]
    Language                    : Spanish
    Default                     : Yes
    Forced                      : Yes

    Text #2
    ID                          : 5
    Format                      : UTF-8
    Codec ID                    : S_TEXT/UTF8
    Codec ID/Info               : UTF-8 Plain Text
    Duration                    : 1 h 35 min
    Bit rate                    : 19 b/s
    Count of elements           : 489
    Stream size                 : 13.8 KiB (0%)
    Title                       : Español-SRT [CinemaniaHDD]
    Language                    : Spanish
    Default                     : No
    Forced                      : No

    Text #3
    ID                          : 6
    Format                      : UTF-8
    Codec ID                    : S_TEXT/UTF8
    Codec ID/Info               : UTF-8 Plain Text
    Duration                    : 1 h 29 min
    Bit rate                    : 19 b/s
    Count of elements           : 498
    Stream size                 : 12.7 KiB (0%)
    Title                       : Ingles-SRT [CinemaniaHDD]
    Language                    : English
    Default                     : No
    Forced                      : No

    Menu
    00:00:00.000                : en:Chapter 01
    00:04:59.424                : en:Chapter 02
    00:10:28.211                : en:Chapter 03
    00:15:26.342                : en:Chapter 04
    00:21:12.938                : en:Chapter 05
    00:24:53.492                : en:Chapter 06
    00:31:53.328                : en:Chapter 07
    00:35:58.698                : en:Chapter 08
    00:41:10.301                : en:Chapter 09
    00:48:05.007                : en:Chapter 10
    00:54:10.080                : en:Chapter 11
    01:01:36.109                : en:Chapter 12
    01:06:18.516                : en:Chapter 13
    01:13:21.689                : en:Chapter 14
    01:23:01.727                : en:Chapter 15
    01:31:21.601                : en:Chapter 16
    01:35:39.734                : en:Chapter 17

  • Peso: 4.48 GiB

Sinopsis

Descargar Monster Hunter: la cacería comienza (2020) HD 1080p Latino. Tras nuestro mundo hay otro: un mundo de monstruos peligrosos y poderosos que gobiernan sus dominios con una ferocidad mortal. Cuando la teniente Artemis (Milla Jovovovich) y sus leales soldados son transportados de nuestro mundo al nuevo mundo, la imperturbable teniente recibe el golpe de su vida. En su desesperada batalla por sobrevivir contra enormes enemigos con poderes increíbles y ataques imparables y repugnantes, Artemis se unirá a un hombre misterioso que ha encontrado la forma de defenderse.

Ficha técnica

Video trailer de la película

Enlaces de descarga

Rip de Bluray

Descargar Monster Hunter: la cacería comienza (2020) HD 1080p Latino




Aportes de DPeliculasHDmega la pass es:dpeliculashdmega.org Aportes de CinemaniaHD la pass es:cinemaniahdd.com
Guardado en : Acción , Aventura , Fantasía , HD 1080p

Películas relacionadas

  • Horizon Line (2020) HD 1080p Latino

    Horizon Line (2020) HD 1080p Latino

    2020
    Horizon Line (2020) HD 1080p Latino

    0.0 1h 31m 2020

    Descargar Horizon Line (2020) HD 1080p Latino. Una pareja que viaja en un avión pequeño para asistir...

    Director: Mikael Marcimain

    Género: HD 1080p

    Actores: Pearl Mackie

  • Sola (2020) HD 1080p Latino

    Sola (2020) HD 1080p Latino

    2020
    Sola (2020) HD 1080p Latino

    0.0 1h 40m 2020

    Descargar Sola (2020) HD 1080p Latino. Una mujer viuda que viaja sola es secuestrada por un asesino a...

    Director: John Hyams

    Género: Drama

    Actores: Shelly Lipkin

  • La Red De Corrupcion (2019) HD 1080p Latino

    La Red De Corrupcion (2019) HD 1080p Latino

    2019
    La Red De Corrupcion (2019) HD 1080p Latino

    5.0 1h 45m 2019

    Descargar La Red De Corrupcion (2019) HD 1080p Latino. Con los Juegos Olímpicos de 2012 de Londres...

    Director: Ron Scalpello

    Género: Crimen

    Actores: Timothy Spall

  • Vanquish (2021) HD 1080p Latino

    Vanquish (2021) HD 1080p Latino

    2021
    Vanquish (2021) HD 1080p Latino

    3.0 1h 36m 2021

    Victoria es una madre joven que intenta dejar atrás su oscuro pasado como mensajero de drogas ruso,...

    Director: George Gallo

    Género: Acción

    Actores: Yvan Gauthier

  • Nomadland (2020) HD 1080p Latino

    Nomadland (2020) HD 1080p Latino

    2020
    Nomadland (2020) HD 1080p Latino

    4.3 1h 48m 2020

    Una mujer de unos sesenta años se embarca en un viaje por el oeste de los Estados Unidos después de...

    Director: Mary Kerrigan

    Género: Drama

    Actores: Warren Keith

Monster Hunter: la cacería comienza (2020) HD 1080p Latino pelicula full hd, Monster Hunter: la cacería comienza (2020) HD 1080p Latino mega latino, Monster Hunter: la cacería comienza (2020) HD 1080p Latino 4k latino, Monster Hunter: la cacería comienza (2020) HD 1080p Latino pelicula completa, Monster Hunter: la cacería comienza (2020) HD 1080p Latino descargar gratis, descargar Monster Hunter: la cacería comienza (2020) HD 1080p Latino pelicula latino, Monster Hunter: la cacería comienza (2020) HD 1080p Latino 1 link mega, Monster Hunter: la cacería comienza (2020) HD 1080p Latino 1 link google drive, Monster Hunter: la cacería comienza (2020) HD 1080p Latino hd 1080p latino.
Comentarios 0