Monster Hunter: la cacería comienza (2020) REMUX 1080p Latino

107 vistas
1 estrella2 estrellas3 estrellas4 estrellas5 estrellas (1 votos, promedio: 5,00 de 5)
Cargando...

Información de Monster Hunter: la cacería comienza (2020) REMUX 1080p Latino

Datos de la película

  • Calidad: Full 1080p
  • Audio: Español Latino AC3 5.1 BLURAY - Ingles DTS 5.1 BLURAY
  • Subtitulos: Español Latino PGS - Ingles PGS
  • Resolución: 1920x1080p
  • Formato: MKV
  • Codec: H.264
  • Encoder: Melkor
  • Mediainfo: Clic para Mostrar Datos Ver
  • Monster Hunter (2020) REMUX 1080p Latino.mkv
    Format                      : Matroska
    Format version              : Version 4
    File size                   : 20.9 GiB
    Duration                    : 1 h 43 min
    Overall bit rate mode       : Variable
    Overall bit rate            : 29.0 Mb/s
    Movie name                  : Monster Hunter (2020) CinemaniaHDD.Net
    Encoded date                : UTC 2021-02-24 03:49:36
    Writing application         : mkvmerge v51.0.0 ('I Wish') 64-bit
    Writing library             : libebml v1.4.0 + libmatroska v1.6.2
    Attachments                 : CINEMANIAHD.png

    Video
    ID                          : 1
    Format                      : AVC
    Format/Info                 : Advanced Video Codec
    Format profile              : High@L4.1
    Format settings             : CABAC / 2 Ref Frames
    Format settings, CABAC      : Yes
    Format settings, Reference  : 2 frames
    Format settings, GOP        : M=1, N=10
    Codec ID                    : V_MPEG4/ISO/AVC
    Duration                    : 1 h 43 min
    Bit rate mode               : Variable
    Bit rate                    : 25.9 Mb/s
    Width                       : 1 920 pixels
    Height                      : 1 080 pixels
    Display aspect ratio        : 16:9
    Frame rate mode             : Constant
    Frame rate                  : 23.976 (24000/1001) FPS
    Color space                 : YUV
    Chroma subsampling          : 4:2:0
    Bit depth                   : 8 bits
    Scan type                   : Progressive
    Bits/(Pixel*Frame)          : 0.521
    Stream size                 : 18.7 GiB (89%)
    Title                       : REMUX HD1080p [CinemaniaHDD]
    Default                     : Yes
    Forced                      : No

    Audio #1
    ID                          : 2
    Format                      : AC-3
    Format/Info                 : Audio Coding 3
    Commercial name             : Dolby Digital
    Codec ID                    : A_AC3
    Duration                    : 1 h 43 min
    Bit rate mode               : Constant
    Bit rate                    : 640 kb/s
    Channel(s)                  : 6 channels
    Channel layout              : L R C LFE Ls Rs
    Sampling rate               : 48.0 kHz
    Frame rate                  : 31.250 FPS (1536 SPF)
    Compression mode            : Lossy
    Stream size                 : 472 MiB (2%)
    Title                       : Español Latino [CinemaniaHDD]
    Language                    : Spanish
    Service kind                : Complete Main
    Default                     : Yes
    Forced                      : No

    Audio #2
    ID                          : 3
    Format                      : DTS XLL
    Format/Info                 : Digital Theater Systems
    Commercial name             : DTS-HD Master Audio
    Codec ID                    : A_DTS
    Duration                    : 1 h 43 min
    Bit rate mode               : Variable
    Bit rate                    : 2 443 kb/s
    Channel(s)                  : 6 channels
    Channel layout              : C L R Ls Rs LFE
    Sampling rate               : 48.0 kHz
    Frame rate                  : 93.750 FPS (512 SPF)
    Bit depth                   : 16 bits
    Compression mode            : Lossless
    Stream size                 : 1.76 GiB (8%)
    Title                       : Ingles [CinemaniaHDD]
    Language                    : English
    Default                     : No
    Forced                      : No

    Text #1
    ID                          : 4
    Format                      : PGS
    Muxing mode                 : zlib
    Codec ID                    : S_HDMV/PGS
    Codec ID/Info               : Picture based subtitle format used on BDs/HD-DVDs
    Duration                    : 1 h 41 min
    Bit rate                    : 371 b/s
    Count of elements           : 24
    Stream size                 : 277 KiB (0%)
    Title                       : Forzados-PGS [CinemaniaHDD]
    Language                    : Spanish
    Default                     : Yes
    Forced                      : No

    Text #2
    ID                          : 5
    Format                      : PGS
    Muxing mode                 : zlib
    Codec ID                    : S_HDMV/PGS
    Codec ID/Info               : Picture based subtitle format used on BDs/HD-DVDs
    Duration                    : 1 h 41 min
    Bit rate                    : 9 544 b/s
    Count of elements           : 914
    Stream size                 : 6.94 MiB (0%)
    Title                       : Español-PGS [CinemaniaHDD]
    Language                    : Spanish
    Default                     : No
    Forced                      : No

    Text #3
    ID                          : 6
    Format                      : PGS
    Muxing mode                 : zlib
    Codec ID                    : S_HDMV/PGS
    Codec ID/Info               : Picture based subtitle format used on BDs/HD-DVDs
    Duration                    : 1 h 29 min
    Bit rate                    : 11.5 kb/s
    Count of elements           : 944
    Stream size                 : 7.40 MiB (0%)
    Title                       : Ingles-PGS [CinemaniaHDD]
    Language                    : English
    Default                     : No
    Forced                      : No

    Text #4
    ID                          : 7
    Format                      : UTF-8
    Codec ID                    : S_TEXT/UTF8
    Codec ID/Info               : UTF-8 Plain Text
    Duration                    : 1 h 32 min
    Bit rate                    : 0 b/s
    Count of elements           : 10
    Stream size                 : 322 Bytes (0%)
    Title                       : Forzados-SRT [CinemaniaHDD]
    Language                    : Spanish
    Default                     : No
    Forced                      : No

    Text #5
    ID                          : 8
    Format                      : UTF-8
    Codec ID                    : S_TEXT/UTF8
    Codec ID/Info               : UTF-8 Plain Text
    Duration                    : 1 h 35 min
    Bit rate                    : 19 b/s
    Count of elements           : 489
    Stream size                 : 13.8 KiB (0%)
    Title                       : Español-SRT [CinemaniaHDD]
    Language                    : Spanish
    Default                     : No
    Forced                      : No

    Menu
    00:00:00.000                : :Chapter 01
    00:04:59.424                : :Chapter 02
    00:10:28.211                : :Chapter 03
    00:15:26.342                : :Chapter 04
    00:21:12.938                : :Chapter 05
    00:24:53.492                : :Chapter 06
    00:31:53.328                : :Chapter 07
    00:35:58.698                : :Chapter 08
    00:41:10.301                : :Chapter 09
    00:48:05.007                : :Chapter 10
    00:54:10.080                : :Chapter 11
    01:01:36.109                : :Chapter 12
    01:06:18.516                : :Chapter 13
    01:13:21.689                : :Chapter 14
    01:23:01.727                : :Chapter 15
    01:31:21.601                : :Chapter 16
    01:35:39.734                : :Chapter 17

  • Peso: 20.9 GiB

Sinopsis

Descargar Monster Hunter: la cacería comienza (2020) REMUX 1080p Latino. Tras nuestro mundo hay otro: un mundo de monstruos peligrosos y poderosos que gobiernan sus dominios con una ferocidad mortal. Cuando la teniente Artemis (Milla Jovovovich) y sus leales soldados son transportados de nuestro mundo al nuevo mundo, la imperturbable teniente recibe el golpe de su vida. En su desesperada batalla por sobrevivir contra enormes enemigos con poderes increíbles y ataques imparables y repugnantes, Artemis se unirá a un hombre misterioso que ha encontrado la forma de defenderse.

Ficha técnica

  • Titulo original: Monster Hunter
  • Fecha de lanzamiento: 03-12-2020 (Canada, China, Germany, Japan, United States of America)
  • Director: Paul W.S. Anderson
  • Género: Acción, Aventura, Fantasía, Remux
  • Puntuación: 5.0 1 votos
  • Duración:
    1h 44m

Video trailer de la película

Enlaces de descarga

Rip de Bluray

Descargar Monster Hunter: la cacería comienza (2020) REMUX 1080p Latino




Aportes de DPeliculasHDmega la pass es:dpeliculashdmega.org Aportes de CinemaniaHD la pass es:cinemaniahdd.com
Guardado en : Acción , Aventura , Fantasía , Remux

Películas relacionadas

  • Spirit: El Indomable (2021) Web-DL 4K UHD HDR Latino

    Spirit: El Indomable (2021) Web-DL 4K UHD HDR Latino

    2021
    Spirit: El Indomable (2021) Web-DL 4K UHD HDR Latino

    0.0 1h 28m 2021

    Descargar Spirit: El Indomable (2021) Web-DL 4K UHD HDR Latino. La vida de Lucky Prescott cambia para...

    Director: Ennio Torresan Jr.

    Género: 4K HDR

    Actores: Walton Goggins

  • Spirit: El Indomable (2021) AMZN WebDL 1080p Latino

    Spirit: El Indomable (2021) AMZN WebDL 1080p Latino

    2021
    Spirit: El Indomable (2021) AMZN WebDL 1080p Latino

    0.0 1h 28m 2021

    Descargar Spirit: El Indomable (2021) AMZN WebDL 1080p Latino. La vida de Lucky Prescott cambia para...

    Director: Ennio Torresan Jr.

    Género: Animación

    Actores: Walton Goggins

  • Spirit: El Indomable (2021) WebDL 1080p Latino

    Spirit: El Indomable (2021) WebDL 1080p Latino

    2021
    Spirit: El Indomable (2021) WebDL 1080p Latino

    0.0 1h 28m 2021

    Descargar Spirit: El Indomable (2021) WebDL 1080p Latino. La vida de Lucky Prescott cambia para siempre...

    Director: Ennio Torresan Jr.

    Género: Animación

    Actores: Walton Goggins

  • La chica de rosa (1986) REMUX 1080p Latino

    La chica de rosa (1986) REMUX 1080p Latino

    1986
    La chica de rosa (1986) REMUX 1080p Latino

    0.0 1h 36m 1986

    Descargar La chica de rosa (1986) REMUX 1080p Latino. Andie Walsh (Molly Ringwald), una buena estudiante...

    Director: Pamela Alch

    Género: Comedia

    Actores: Molly Ringwald

  • Escucha tu destino (2007) REMUX 1080p Latino

    Escucha tu destino (2007) REMUX 1080p Latino

    2007
    Escucha tu destino (2007) REMUX 1080p Latino

    0.0 1h 53m 2007

    Descargar Escucha tu destino (2007) REMUX 1080p Latino. Un joven guitarrista irlandés (Jonathan Rhys...

    Director: Kirsten Sheridan

    Género: Drama

    Actores: Zach Page

Monster Hunter: la cacería comienza (2020) REMUX 1080p Latino pelicula full hd, Monster Hunter: la cacería comienza (2020) REMUX 1080p Latino mega latino, Monster Hunter: la cacería comienza (2020) REMUX 1080p Latino 4k latino, Monster Hunter: la cacería comienza (2020) REMUX 1080p Latino pelicula completa, Monster Hunter: la cacería comienza (2020) REMUX 1080p Latino descargar gratis, descargar Monster Hunter: la cacería comienza (2020) REMUX 1080p Latino pelicula latino, Monster Hunter: la cacería comienza (2020) REMUX 1080p Latino 1 link mega, Monster Hunter: la cacería comienza (2020) REMUX 1080p Latino 1 link google drive, Monster Hunter: la cacería comienza (2020) REMUX 1080p Latino hd 1080p latino.
Comentarios 0