Monster Hunter (2020) 4K HDR WEB-DL Latino – CMHDD

89 vistas
1 estrella2 estrellas3 estrellas4 estrellas5 estrellas (Ninguna valoración todavía)
Cargando...

Información de Monster Hunter (2020) 4K HDR WEB-DL Latino – CMHDD

Datos de la película

  • Calidad: 4K HDR
  • Audio: Se especifica abajo de la Sinopsis
  • Subtitulos: Español Latino SRT- FORZADOS SRT
  • Resolución: 3840x1600p
  • Formato: MKV
  • Codec: H.264
  • Encoder: Dracarys
  • Mediainfo: Clic para Mostrar Datos Ver
  • Format                      : Matroska
    Format version              : Version 4
    File size                   : 11.5 GiB
    Duration                    : 1 h 43 min
    Overall bit rate            : 15.9 Mb/s
    Movie name                  : Monster Hunter (2020) 4K HDR WEB-DL  - CMHDD
    Encoded date                : UTC 2021-02-18 16:59:00
    Writing application         : mkvmerge v51.0.0 ('I Wish') 64-bit
    Writing library             : libebml v1.4.0 + libmatroska v1.6.2

    Video
    ID                          : 1
    Format                      : HEVC
    Format/Info                 : High Efficiency Video Coding
    Format profile              : Main 10@L5@Main
    HDR format                  : SMPTE ST 2094 App 4, Version 1, HDR10+ Profile B compatible
    Codec ID                    : V_MPEGH/ISO/HEVC
    Duration                    : 1 h 43 min
    Bit rate                    : 14.6 Mb/s
    Width                       : 3 840 pixels
    Height                      : 1 600 pixels
    Display aspect ratio        : 2.40:1
    Frame rate mode             : Constant
    Frame rate                  : 23.976 (24000/1001) FPS
    Color space                 : YUV
    Chroma subsampling          : 4:2:0
    Bit depth                   : 10 bits
    Bits/(Pixel*Frame)          : 0.099
    Stream size                 : 10.5 GiB (92%)
    Default                     : Yes
    Forced                      : No
    Color range                 : Limited
    Color primaries             : BT.2020
    Transfer characteristics    : PQ
    Matrix coefficients         : BT.2020 non-constant
    Mastering display color pri : Display P3
    Mastering display luminance : min: 0.0050 cd/m2, max: 4000 cd/m2
    Maximum Content Light Level : 1636 cd/m2
    Maximum Frame-Average Light : 278 cd/m2

    Audio #1
    ID                          : 2
    Format                      : AC-3
    Format/Info                 : Audio Coding 3
    Commercial name             : Dolby Digital
    Codec ID                    : A_AC3
    Duration                    : 1 h 43 min
    Bit rate mode               : Constant
    Bit rate                    : 640 kb/s
    Channel(s)                  : 6 channels
    Channel layout              : L R C LFE Ls Rs
    Sampling rate               : 48.0 kHz
    Frame rate                  : 31.250 FPS (1536 SPF)
    Compression mode            : Lossy
    Delay relative to video     : 2 ms
    Stream size                 : 472 MiB (4%)
    Language                    : Spanish
    Service kind                : Complete Main
    Default                     : Yes
    Forced                      : No

    Audio #2
    ID                          : 3
    Format                      : E-AC-3
    Format/Info                 : Enhanced AC-3
    Commercial name             : Dolby Digital Plus
    Codec ID                    : A_EAC3
    Duration                    : 1 h 43 min
    Bit rate mode               : Constant
    Bit rate                    : 640 kb/s
    Channel(s)                  : 6 channels
    Channel layout              : L R C LFE Ls Rs
    Sampling rate               : 48.0 kHz
    Frame rate                  : 31.250 FPS (1536 SPF)
    Compression mode            : Lossy
    Stream size                 : 472 MiB (4%)
    Language                    : English
    Service kind                : Complete Main
    Default                     : No
    Forced                      : No

    Text #1
    ID                          : 4
    Format                      : UTF-8
    Codec ID                    : S_TEXT/UTF8
    Codec ID/Info               : UTF-8 Plain Text
    Duration                    : 1 h 32 min
    Bit rate                    : 0 b/s
    Count of elements           : 10
    Stream size                 : 322 Bytes (0%)
    Language                    : Spanish
    Default                     : Yes
    Forced                      : Yes

    Text #2
    ID                          : 5
    Format                      : UTF-8
    Codec ID                    : S_TEXT/UTF8
    Codec ID/Info               : UTF-8 Plain Text
    Duration                    : 1 h 41 min
    Bit rate                    : 15 b/s
    Count of elements           : 457
    Stream size                 : 11.6 KiB (0%)
    Language                    : Spanish
    Default                     : No
    Forced                      : No

     

  • Peso: 11.5 GiB

Sinopsis

Tras nuestro mundo hay otro: un mundo de monstruos peligrosos y poderosos que gobiernan sus dominios con una ferocidad mortal. Cuando la teniente Artemis (Milla Jovovovich) y sus leales soldados son transportados de nuestro mundo al nuevo mundo, la imperturbable teniente recibe el golpe de su vida. En su desesperada batalla por sobrevivir contra enormes enemigos con poderes increíbles y ataques imparables y repugnantes, Artemis se unirá a un hombre misterioso que ha encontrado la forma de defenderse.

 

Español Latino: AC3 5.1 – Ingles: E-AC3 5.1 AMAZON

Ficha técnica

  • Titulo original: Monster Hunter
  • Fecha de lanzamiento: 03-12-2020 (Canada, China, Germany, Japan, United States of America)
  • Director: Paul W.S. Anderson
  • Género: Acción, Aventura, Fantasía
  • Puntuación: 0.0 0 votos
  • Duración:
    1h 44m

Video trailer de la película

Enlaces de descarga

Rip de Bluray

Descargar Monster Hunter (2020) 4K HDR WEB-DL Latino – CMHDD




Aportes de DPeliculasHDmega la pass es:dpeliculashdmega.org Aportes de CinemaniaHD la pass es:cinemaniahdd.com
Guardado en : Acción , Aventura , Fantasía

Películas relacionadas

Monster Hunter (2020) 4K HDR WEB-DL Latino – CMHDD pelicula full hd, Monster Hunter (2020) 4K HDR WEB-DL Latino – CMHDD mega latino, Monster Hunter (2020) 4K HDR WEB-DL Latino – CMHDD 4k latino, Monster Hunter (2020) 4K HDR WEB-DL Latino – CMHDD pelicula completa, Monster Hunter (2020) 4K HDR WEB-DL Latino – CMHDD descargar gratis, descargar Monster Hunter (2020) 4K HDR WEB-DL Latino – CMHDD pelicula latino, Monster Hunter (2020) 4K HDR WEB-DL Latino – CMHDD 1 link mega, Monster Hunter (2020) 4K HDR WEB-DL Latino – CMHDD 1 link google drive, Monster Hunter (2020) 4K HDR WEB-DL Latino – CMHDD hd 1080p latino.
Comentarios 0