Monster Hunter (2020) 1080p WEB-DL Latino – CMHDD

130 vistas
1 estrella2 estrellas3 estrellas4 estrellas5 estrellas (1 votos, promedio: 5,00 de 5)
Cargando...

Información de Monster Hunter (2020) 1080p WEB-DL Latino – CMHDD

Datos de la película

  • Calidad: WEBDL
  • Audio: Se especifica abajo de la Sinopsis
  • Subtitulos: Español Latino SRT- FORZADOS SRT
  • Resolución: 1920x800p
  • Formato: MKV
  • Codec: H.264
  • Encoder: Dracarys
  • Mediainfo: Clic para Mostrar Datos Ver
  • Format                      : Matroska
    Format version              : Version 4
    File size                   : 6.78 GiB
    Duration                    : 1 h 43 min
    Overall bit rate            : 9 414 kb/s
    Movie name                  : Monster Hunter (2020) 1080p WEB-DL  - CMHDD
    Encoded date                : UTC 2021-02-18 16:57:06
    Writing application         : mkvmerge v51.0.0 ('I Wish') 64-bit
    Writing library             : libebml v1.4.0 + libmatroska v1.6.2

    Video
    ID                          : 1
    Format                      : AVC
    Format/Info                 : Advanced Video Codec
    Format profile              : High@L4
    Format settings             : CABAC / 4 Ref Frames
    Format settings, CABAC      : Yes
    Format settings, Reference  : 4 frames
    Codec ID                    : V_MPEG4/ISO/AVC
    Duration                    : 1 h 43 min
    Bit rate mode               : Constant
    Bit rate                    : 8 132 kb/s
    Nominal bit rate            : 10 000 kb/s
    Width                       : 1 920 pixels
    Height                      : 800 pixels
    Display aspect ratio        : 2.40:1
    Frame rate mode             : Constant
    Frame rate                  : 23.976 (24000/1001) FPS
    Color space                 : YUV
    Chroma subsampling          : 4:2:0
    Bit depth                   : 8 bits
    Scan type                   : Progressive
    Bits/(Pixel*Frame)          : 0.221
    Stream size                 : 5.86 GiB (86%)
    Default                     : Yes
    Forced                      : No
    Color range                 : Limited
    Color primaries             : BT.709
    Transfer characteristics    : BT.709
    Matrix coefficients         : BT.709

    Audio #1
    ID                          : 2
    Format                      : AC-3
    Format/Info                 : Audio Coding 3
    Commercial name             : Dolby Digital
    Codec ID                    : A_AC3
    Duration                    : 1 h 43 min
    Bit rate mode               : Constant
    Bit rate                    : 640 kb/s
    Channel(s)                  : 6 channels
    Channel layout              : L R C LFE Ls Rs
    Sampling rate               : 48.0 kHz
    Frame rate                  : 31.250 FPS (1536 SPF)
    Compression mode            : Lossy
    Delay relative to video     : 2 ms
    Stream size                 : 472 MiB (7%)
    Language                    : Spanish
    Service kind                : Complete Main
    Default                     : Yes
    Forced                      : No

    Audio #2
    ID                          : 3
    Format                      : E-AC-3
    Format/Info                 : Enhanced AC-3
    Commercial name             : Dolby Digital Plus
    Codec ID                    : A_EAC3
    Duration                    : 1 h 43 min
    Bit rate mode               : Constant
    Bit rate                    : 640 kb/s
    Channel(s)                  : 6 channels
    Channel layout              : L R C LFE Ls Rs
    Sampling rate               : 48.0 kHz
    Frame rate                  : 31.250 FPS (1536 SPF)
    Compression mode            : Lossy
    Stream size                 : 472 MiB (7%)
    Language                    : English
    Service kind                : Complete Main
    Default                     : No
    Forced                      : No

    Text #1
    ID                          : 4
    Format                      : UTF-8
    Codec ID                    : S_TEXT/UTF8
    Codec ID/Info               : UTF-8 Plain Text
    Duration                    : 1 h 32 min
    Bit rate                    : 0 b/s
    Count of elements           : 10
    Stream size                 : 322 Bytes (0%)
    Language                    : Spanish
    Default                     : Yes
    Forced                      : Yes

    Text #2
    ID                          : 5
    Format                      : UTF-8
    Codec ID                    : S_TEXT/UTF8
    Codec ID/Info               : UTF-8 Plain Text
    Duration                    : 1 h 41 min
    Bit rate                    : 15 b/s
    Count of elements           : 457
    Stream size                 : 11.6 KiB (0%)
    Language                    : Spanish
    Default                     : No
    Forced                      : No

     

  • Peso: 6.78 GiB

Sinopsis

Tras nuestro mundo hay otro: un mundo de monstruos peligrosos y poderosos que gobiernan sus dominios con una ferocidad mortal. Cuando la teniente Artemis (Milla Jovovovich) y sus leales soldados son transportados de nuestro mundo al nuevo mundo, la imperturbable teniente recibe el golpe de su vida. En su desesperada batalla por sobrevivir contra enormes enemigos con poderes increíbles y ataques imparables y repugnantes, Artemis se unirá a un hombre misterioso que ha encontrado la forma de defenderse.

 

Español Latino: AC3 5.1 – Ingles: E-AC3 5.1 AMAZON

 

 

Ficha técnica

  • Titulo original: Monster Hunter
  • Fecha de lanzamiento: 03-12-2020 (Canada, China, Germany, Japan, United States of America)
  • Director: Paul W.S. Anderson
  • Género: Acción, Aventura, Fantasía
  • Puntuación: 5.0 1 votos
  • Duración:
    1h 44m

Video trailer de la película

Enlaces de descarga

Rip de Bluray

Descargar Monster Hunter (2020) 1080p WEB-DL Latino – CMHDD




Aportes de DPeliculasHDmega la pass es:dpeliculashdmega.org Aportes de CinemaniaHD la pass es:cinemaniahdd.com
Guardado en : Acción , Aventura , Fantasía

Películas relacionadas

  • Spirit: El Indomable (2021) Web-DL 4K UHD HDR Latino

    Spirit: El Indomable (2021) Web-DL 4K UHD HDR Latino

    2021
    Spirit: El Indomable (2021) Web-DL 4K UHD HDR Latino

    0.0 1h 28m 2021

    Descargar Spirit: El Indomable (2021) Web-DL 4K UHD HDR Latino. La vida de Lucky Prescott cambia para...

    Director: Ennio Torresan Jr.

    Género: 4K HDR

    Actores: Walton Goggins

  • Spirit: El Indomable (2021) AMZN WebDL 1080p Latino

    Spirit: El Indomable (2021) AMZN WebDL 1080p Latino

    2021
    Spirit: El Indomable (2021) AMZN WebDL 1080p Latino

    0.0 1h 28m 2021

    Descargar Spirit: El Indomable (2021) AMZN WebDL 1080p Latino. La vida de Lucky Prescott cambia para...

    Director: Ennio Torresan Jr.

    Género: Animación

    Actores: Walton Goggins

  • Spirit: El Indomable (2021) WebDL 1080p Latino

    Spirit: El Indomable (2021) WebDL 1080p Latino

    2021
    Spirit: El Indomable (2021) WebDL 1080p Latino

    0.0 1h 28m 2021

    Descargar Spirit: El Indomable (2021) WebDL 1080p Latino. La vida de Lucky Prescott cambia para siempre...

    Director: Ennio Torresan Jr.

    Género: Animación

    Actores: Walton Goggins

Monster Hunter (2020) 1080p WEB-DL Latino – CMHDD pelicula full hd, Monster Hunter (2020) 1080p WEB-DL Latino – CMHDD mega latino, Monster Hunter (2020) 1080p WEB-DL Latino – CMHDD 4k latino, Monster Hunter (2020) 1080p WEB-DL Latino – CMHDD pelicula completa, Monster Hunter (2020) 1080p WEB-DL Latino – CMHDD descargar gratis, descargar Monster Hunter (2020) 1080p WEB-DL Latino – CMHDD pelicula latino, Monster Hunter (2020) 1080p WEB-DL Latino – CMHDD 1 link mega, Monster Hunter (2020) 1080p WEB-DL Latino – CMHDD 1 link google drive, Monster Hunter (2020) 1080p WEB-DL Latino – CMHDD hd 1080p latino.
Comentarios 0