×

¿Problemas para descargar con Mozilla, EDGE? Deshabilita la opción "Abrir vinculos en una pestaña nueva" tal como lo muestra ésta imagen.

Monster Hunter (2020) [Open Matte] WEB-DL 1080p Latino

596 vistas

Información de Monster Hunter (2020) [Open Matte] WEB-DL 1080p Latino

Datos de la película

  • Calidad: 1080p
  • Audio: Español Latino AC3 5.1 WEB-DL - Ingles AC3 5.1 WEB-DL
  • Subtitulos: Español Latino SRT- FORZADOS SRT
  • Resolución: 1920x1080
  • Formato: MKV
  • Codec: H.264
  • Encoder: cinemaniahdd
  • Mediainfo: Clic para Mostrar Datos Ver
  • Monster Hunter (2020) [Open Matte] WEB-DL 1080p Latino [CNMNHDD].mkv
    Format                      : Matroska
    Format version              : Version 4
    File size                   : 4.92 GiB
    Duration                    : 1 h 43 min
    Overall bit rate            : 6 811 kb/s
    Movie name                  : Monster Hunter. La Caceria Comienza (2020) - Open Matte [1080p] - CinemaniaHDD.Net
    Encoded date                : UTC 2023-07-08 19:26:16
    Writing application         : mkvmerge v56.1.0 ('My Friend') 64-bit
    Writing library             : libebml v1.4.2 + libmatroska v1.6.4

    Video
    ID                          : 1
    Format                      : AVC
    Format/Info                 : Advanced Video Codec
    Format profile              : High@L4
    Format settings             : CABAC / 4 Ref Frames
    Format settings, CABAC      : Yes
    Format settings, Reference  : 4 frames
    Codec ID                    : V_MPEG4/ISO/AVC
    Duration                    : 1 h 43 min
    Bit rate                    : 5 120 kb/s
    Width                       : 1 920 pixels
    Height                      : 1 080 pixels
    Display aspect ratio        : 16:9
    Frame rate mode             : Constant
    Frame rate                  : 23.976 (24000/1001) FPS
    Color space                 : YUV
    Chroma subsampling          : 4:2:0
    Bit depth                   : 8 bits
    Scan type                   : Progressive
    Bits/(Pixel*Frame)          : 0.103
    Stream size                 : 3.53 GiB (72%)
    Title                       : CinemaniaHDD
    Writing library             : x264 core 148
    Encoding settings           : cabac=1 / ref=3 / deblock=1:0:0 / analyse=0x3:0x113 / me=hex / subme=7 / psy=1 / psy_rd=1.00:0.00 / mixed_ref=1 / me_range=16 / chroma_me=1 / trellis=1 / 8x8dct=1 / cqm=0 / deadzone=21,11 / fast_pskip=1 / chroma_qp_offset=-2 / threads=34 / lookahead_threads=5 / sliced_threads=0 / nr=0 / decimate=1 / interlaced=0 / bluray_compat=0 / constrained_intra=0 / bframes=6 / b_pyramid=2 / b_adapt=1 / b_bias=0 / direct=1 / weightb=1 / open_gop=0 / weightp=2 / keyint=50 / keyint_min=26 / scenecut=0 / intra_refresh=0 / rc_lookahead=40 / rc=2pass / mbtree=1 / bitrate=5120 / ratetol=1.0 / qcomp=0.60 / qpmin=0 / qpmax=69 / qpstep=4 / cplxblur=20.0 / qblur=0.5 / vbv_maxrate=7680 / vbv_bufsize=20480 / nal_hrd=none / filler=0 / ip_ratio=1.40 / aq=1:1.00
    Default                     : Yes
    Forced                      : No

    Audio #1
    ID                          : 2
    Format                      : AC-3
    Format/Info                 : Audio Coding 3
    Commercial name             : Dolby Digital
    Codec ID                    : A_AC3
    Duration                    : 1 h 43 min
    Bit rate mode               : Constant
    Bit rate                    : 640 kb/s
    Channel(s)                  : 6 channels
    Channel layout              : L R C LFE Ls Rs
    Sampling rate               : 48.0 kHz
    Frame rate                  : 31.250 FPS (1536 SPF)
    Compression mode            : Lossy
    Delay relative to video     : 18 ms
    Stream size                 : 473 MiB (9%)
    Title                       : Español latino [CinemaniaHDD]
    Language                    : Spanish
    Service kind                : Complete Main
    Default                     : Yes
    Forced                      : No

    Audio #2
    ID                          : 3
    Format                      : E-AC-3
    Format/Info                 : Enhanced AC-3
    Commercial name             : Dolby Digital Plus
    Codec ID                    : A_EAC3
    Duration                    : 1 h 43 min
    Bit rate mode               : Constant
    Bit rate                    : 640 kb/s
    Channel(s)                  : 6 channels
    Channel layout              : L R C LFE Ls Rs
    Sampling rate               : 48.0 kHz
    Frame rate                  : 31.250 FPS (1536 SPF)
    Compression mode            : Lossy
    Delay relative to video     : 18 ms
    Stream size                 : 473 MiB (9%)
    Title                       : Español latino / E-AC3 [CinemaniaHDD]
    Language                    : Spanish
    Service kind                : Complete Main
    Default                     : No
    Forced                      : No

    Audio #3
    ID                          : 4
    Format                      : E-AC-3
    Format/Info                 : Enhanced AC-3
    Commercial name             : Dolby Digital Plus
    Codec ID                    : A_EAC3
    Duration                    : 1 h 43 min
    Bit rate mode               : Constant
    Bit rate                    : 640 kb/s
    Channel(s)                  : 6 channels
    Channel layout              : L R C LFE Ls Rs
    Sampling rate               : 48.0 kHz
    Frame rate                  : 31.250 FPS (1536 SPF)
    Compression mode            : Lossy
    Stream size                 : 472 MiB (9%)
    Title                       : Inglés [CinemaniaHDD]
    Language                    : English
    Service kind                : Complete Main
    Default                     : No
    Forced                      : No

    Text #1
    ID                          : 5
    Format                      : UTF-8
    Codec ID                    : S_TEXT/UTF8
    Codec ID/Info               : UTF-8 Plain Text
    Duration                    : 1 h 41 min
    Bit rate                    : 0 b/s
    Count of elements           : 7
    Stream size                 : 264 Bytes (0%)
    Title                       : Forzados [CinemaniaHDD]
    Language                    : Spanish
    Default                     : Yes
    Forced                      : Yes

    Text #2
    ID                          : 6
    Format                      : UTF-8
    Codec ID                    : S_TEXT/UTF8
    Codec ID/Info               : UTF-8 Plain Text
    Duration                    : 1 h 41 min
    Bit rate                    : 15 b/s
    Count of elements           : 457
    Stream size                 : 11.7 KiB (0%)
    Title                       : Español latino [CinemaniaHDD]
    Language                    : Spanish
    Default                     : No
    Forced                      : No

    Text #3
    ID                          : 7
    Format                      : UTF-8
    Codec ID                    : S_TEXT/UTF8
    Codec ID/Info               : UTF-8 Plain Text
    Duration                    : 1 h 29 min
    Bit rate                    : 19 b/s
    Count of elements           : 515
    Stream size                 : 12.6 KiB (0%)
    Title                       : Inglés [CinemaniaHDD]
    Language                    : English
    Default                     : No
    Forced                      : No

    Menu
    00:00:00.000                : Chapter 01
    00:04:59.424                : Chapter 02
    00:10:28.211                : Chapter 03
    00:15:26.342                : Chapter 04
    00:21:12.938                : Chapter 05
    00:24:53.492                : Chapter 06
    00:31:53.328                : Chapter 07
    00:35:58.698                : Chapter 08
    00:41:10.301                : Chapter 09
    00:48:05.007                : Chapter 10
    00:54:10.080                : Chapter 11
    01:01:36.109                : Chapter 12
    01:06:18.516                : Chapter 13
    01:13:21.689                : Chapter 14
    01:23:01.727                : Chapter 15
    01:31:21.601                : Chapter 16
    01:35:39.734                : Chapter 17

     

  • Peso: 4.92 GiB

Sinopsis

Tras nuestro mundo hay otro: un mundo de monstruos peligrosos y poderosos que gobiernan sus dominios con una ferocidad mortal. Cuando la teniente Artemis (Milla Jovovovich) y sus leales soldados son transportados de nuestro mundo al nuevo mundo, la imperturbable teniente recibe el golpe de su vida. En su desesperada batalla por sobrevivir contra enormes enemigos con poderes increíbles y ataques imparables y repugnantes, Artemis se unirá a un hombre misterioso que ha encontrado la forma de defenderse.

 

 

Ficha técnica

Video trailer de la película

Enlaces de descarga

Rip de Bluray

Descargar Monster Hunter (2020) [Open Matte] WEB-DL 1080p Latino




Aportes de DPeliculasHDmega la pass es:dpeliculashdmega.org Aportes de CinemaniaHD la pass es:cinemaniahdd.com Aportes recientes:cinemaniahdd.net
Guardado en : Acción , Aventura , Fantasía , OPEN MATTE

Películas relacionadas

  • The Shift (2023) AMZN WEB-DL 1080p Latino

    The Shift (2023) AMZN WEB-DL 1080p Latino

    2023
    The Shift (2023) AMZN WEB-DL 1080p Latino

    1h 53m 2023

    Descargar The Shift (2023) AMZN WEB-DL 1080p Latino. Kevin viaja a través de los mundos para reunirse...

    Director: Brock Heasley

    Género: Ciencia ficción

    Actores: Teck

  • Godzilla: Minus One (2023) 1080p SUB-CMHDD

    Godzilla: Minus One (2023) 1080p SUB-CMHDD

    2023
    Godzilla: Minus One (2023) 1080p SUB-CMHDD

    2h 5m 2023

    Descargar Godzilla: Minus One (2023) 1080p SUB-CMHDD. En el Japón de la posguerra surge un nuevo terror....

    Director: 山崎貴

    Género: Acción

    Actores: 鶴田翔

  • Kung Fu Panda 4 (2024) 1080p Latino-CMHDD

    Kung Fu Panda 4 (2024) 1080p Latino-CMHDD

    2024
    Kung Fu Panda 4 (2024) 1080p Latino-CMHDD

    1h 34m 2024

    Descargar Kung Fu Panda 4 (2024) 1080p Latino-CMHDD. Po se prepara para ser el líder espiritual del...

    Director: Stephanie Ma Stine

    Género: Acción

    Actores: Viola Davis

  • Kung Fu Panda 4 (2024) Full HD 1080p Latino-CMHDD

    Kung Fu Panda 4 (2024) Full HD 1080p Latino-CMHDD

    2024
    Kung Fu Panda 4 (2024) Full HD 1080p Latino-CMHDD

    1h 34m 2024

    Descargar Kung Fu Panda 4 (2024) Full HD 1080p Latino-CMHDD. Po se prepara para ser el líder espiritual...

    Director: Stephanie Ma Stine

    Género: Acción

    Actores: Viola Davis

  • Kung Fu Panda 4 (2024) REMUX 1080p Latino-CMHDD

    Kung Fu Panda 4 (2024) REMUX 1080p Latino-CMHDD

    2024
    Kung Fu Panda 4 (2024) REMUX 1080p Latino-CMHDD

    1h 34m 2024

    Descargar Kung Fu Panda 4 (2024) REMUX 1080p Latino-CMHDD. Po se prepara para ser el líder espiritual...

    Director: Stephanie Ma Stine

    Género: Acción

    Actores: Viola Davis

descargar Monster Hunter (2020) [Open Matte] WEB-DL 1080p Latino 1080p 1080p gratis, Monster Hunter (2020) [Open Matte] WEB-DL 1080p Latino 1080p mega 1 link, Monster Hunter (2020) [Open Matte] WEB-DL 1080p Latino 1080p pelicula completa, descargar Monster Hunter (2020) [Open Matte] WEB-DL 1080p Latino 1080p gratis en mega.

Monster Hunter (2020) [Open Matte] WEB-DL 1080p Latino pelicula full hd, Monster Hunter (2020) [Open Matte] WEB-DL 1080p Latino mega latino, Monster Hunter (2020) [Open Matte] WEB-DL 1080p Latino 4k latino, Monster Hunter (2020) [Open Matte] WEB-DL 1080p Latino pelicula completa, Monster Hunter (2020) [Open Matte] WEB-DL 1080p Latino descargar gratis, descargar Monster Hunter (2020) [Open Matte] WEB-DL 1080p Latino pelicula latino, Monster Hunter (2020) [Open Matte] WEB-DL 1080p Latino 1 link mega, Monster Hunter (2020) [Open Matte] WEB-DL 1080p Latino 1 link google drive, Monster Hunter (2020) [Open Matte] WEB-DL 1080p Latino hd 1080p latino.
Comentarios 0