Molly’s Game (2017) 1080p Latino

1.267 vistas
1 estrella2 estrellas3 estrellas4 estrellas5 estrellas (Ninguna valoración todavía)
Cargando…

Información de Molly’s Game (2017) 1080p Latino

Datos de la película

  • Calidad: 1080p
  • Audio: Español Latino AC3 5.1 BLURAY - Ingles AC3 5.1 BLURAY
  • Subtitulos: Español Latino SRT- FORZADOS SRT
  • Resolución: 1920x800p
  • Formato: MKV
  • Codec: H.264
  • Encoder: DRacarys
  • Mediainfo: Clic para Mostrar Datos Ver
  • Format                                   : Matroska
    Format version                           : Version 4 / Version 2
    File size                                : 4.63 GiB
    Duration                                 : 2 h 20 min
    Overall bit rate                         : 4 704 kb/s
    Movie name                               : CinemaniaHDD.com
    Encoded date                             : UTC 2018-03-30 02:51:16 / UTC 2018-03-30T01:17:13Z
    Writing application                      : mkvmerge v15.0.0 ('Duel with the Devil') 64-bit
    Writing library                          : libebml v1.3.5 + libmatroska v1.4.5 / Lavf57.7.2

    Video
    ID                                       : 1
    Format                                   : AVC
    Format/Info                              : Advanced Video Codec
    Format profile                           : [email protected]
    Format settings                          : CABAC / 4 Ref Frames
    Format settings, CABAC                   : Yes
    Format settings, RefFrames               : 4 frames
    Codec ID                                 : V_MPEG4/ISO/AVC
    Duration                                 : 2 h 20 min
    Bit rate                                 : 3 330 kb/s
    Nominal bit rate                         : 3 500 kb/s
    Width                                    : 1 920 pixels
    Height                                   : 800 pixels
    Display aspect ratio                     : 2.40:1
    Frame rate mode                          : Constant
    Frame rate                               : 23.976 (24000/1001) FPS
    Color space                              : YUV
    Chroma subsampling                       : 4:2:0
    Bit depth                                : 8 bits
    Scan type                                : Progressive
    Bits/(Pixel*Frame)                       : 0.090
    Stream size                              : 3.28 GiB (71%)
    Title                                    : Molly's Game (2017) 1080p Latino
    Writing library                          : x264 core 148 r2708 86b7198
    Encoding settings                        : cabac=1 / ref=3 / deblock=1:0:0 / analyse=0x3:0x113 / me=hex / subme=7 / psy=1 / psy_rd=1.00:0.00 / mixed_ref=1 / me_range=16 / chroma_me=1 / trellis=1 / 8x8dct=1 / cqm=0 / deadzone=21,11 / fast_pskip=1 / chroma_qp_offset=-2 / threads=25 / lookahead_threads=4 / sliced_threads=0 / nr=0 / decimate=1 / interlaced=0 / bluray_compat=0 / constrained_intra=0 / bframes=3 / b_pyramid=2 / b_adapt=1 / b_bias=0 / direct=1 / weightb=1 / open_gop=0 / weightp=2 / keyint=240 / keyint_min=24 / scenecut=40 / intra_refresh=0 / rc_lookahead=40 / rc=abr / mbtree=1 / bitrate=3500 / ratetol=1.0 / qcomp=0.60 / qpmin=0 / qpmax=69 / qpstep=4 / vbv_maxrate=62500 / vbv_bufsize=78125 / nal_hrd=none / filler=0 / ip_ratio=1.40 / aq=1:1.00
    Language                                 : English
    Default                                  : Yes
    Forced                                   : No
    Color range                              : Limited
    Color primaries                          : BT.709
    Transfer characteristics                 : BT.709
    Matrix coefficients                      : BT.709
    Statistics Tags Issue                    : mkvmerge v15.0.0 ('Duel with the Devil') 64-bit 2018-03-30 02:51:16 / mkvmerge v15.0.0 ('Duel with the Devil') 64-bit 2018-03-30 02:51:16 / UTC 2018-03-30T01:17:13Z
    FromStats_BitRate                        : 3421306
    FromStats_Duration                       : 02:20:57.658000000
    FromStats_FrameCount                     : 202781
    FromStats_StreamSize                     : 3617029930

    Audio #1
    ID                                       : 2
    Format                                   : AC-3
    Format/Info                              : Audio Coding 3
    Format settings, Endianness              : Big
    Codec ID                                 : A_AC3
    Duration                                 : 2 h 20 min
    Bit rate mode                            : Constant
    Bit rate                                 : 640 kb/s
    Channel(s)                               : 6 channels
    Channel positions                        : Front: L C R, Side: L R, LFE
    Sampling rate                            : 48.0 kHz
    Frame rate                               : 31.250 FPS (1536 SPF)
    Bit depth                                : 16 bits
    Compression mode                         : Lossy
    Delay relative to video                  : -5 ms
    Stream size                              : 645 MiB (14%)
    Language                                 : Spanish
    Service kind                             : Complete Main
    Default                                  : Yes
    Forced                                   : No
    Statistics Tags Issue                    : mkvmerge v15.0.0 ('Duel with the Devil') 64-bit 2018-03-30 02:51:16 / mkvmerge v15.0.0 ('Duel with the Devil') 64-bit 2018-03-30 02:51:16 / UTC 2018-03-30T01:17:13Z
    FromStats_BitRate                        : 640000
    FromStats_Duration                       : 02:20:57.696000000
    FromStats_FrameCount                     : 264303
    FromStats_StreamSize                     : 676615680

    Audio #2
    ID                                       : 3
    Format                                   : AC-3
    Format/Info                              : Audio Coding 3
    Format settings, Endianness              : Big
    Codec ID                                 : A_AC3
    Duration                                 : 2 h 20 min
    Bit rate mode                            : Constant
    Bit rate                                 : 640 kb/s
    Channel(s)                               : 6 channels
    Channel positions                        : Front: L C R, Side: L R, LFE
    Sampling rate                            : 48.0 kHz
    Frame rate                               : 31.250 FPS (1536 SPF)
    Bit depth                                : 16 bits
    Compression mode                         : Lossy
    Delay relative to video                  : -5 ms
    Stream size                              : 645 MiB (14%)
    Language                                 : English
    Service kind                             : Complete Main
    Default                                  : No
    Forced                                   : No
    Statistics Tags Issue                    : mkvmerge v15.0.0 ('Duel with the Devil') 64-bit 2018-03-30 02:51:16 / mkvmerge v15.0.0 ('Duel with the Devil') 64-bit 2018-03-30 02:51:16 / UTC 2018-03-30T01:17:13Z
    FromStats_BitRate                        : 640000
    FromStats_Duration                       : 02:20:57.632000000
    FromStats_FrameCount                     : 264301
    FromStats_StreamSize                     : 676610560

    Text #1
    ID                                       : 4
    Format                                   : UTF-8
    Codec ID                                 : S_TEXT/UTF8
    Codec ID/Info                            : UTF-8 Plain Text
    Title                                    : Forzados
    Language                                 : Spanish
    Default                                  : Yes
    Forced                                   : Yes
    Statistics Tags Issue                    : mkvmerge v15.0.0 ('Duel with the Devil') 64-bit 2018-03-30 02:51:16 / mkvmerge v15.0.0 ('Duel with the Devil') 64-bit 2018-03-30 02:51:16 / UTC 2018-03-30T01:17:13Z
    FromStats_BitRate                        : 0
    FromStats_Duration                       : 02:19:05.546000000
    FromStats_FrameCount                     : 19
    FromStats_StreamSize                     : 437

    Text #2
    ID                                       : 5
    Format                                   : UTF-8
    Codec ID                                 : S_TEXT/UTF8
    Codec ID/Info                            : UTF-8 Plain Text
    Language                                 : Spanish
    Default                                  : No
    Forced                                   : No
    Statistics Tags Issue                    : mkvmerge v15.0.0 ('Duel with the Devil') 64-bit 2018-03-30 02:51:16 / mkvmerge v15.0.0 ('Duel with the Devil') 64-bit 2018-03-30 02:51:16 / UTC 2018-03-30T01:17:13Z
    FromStats_BitRate                        : 120
    FromStats_Duration                       : 02:13:03.168000000
    FromStats_FrameCount                     : 2999
    FromStats_StreamSize                     : 120516

    Menu
    00:00:00.000                             : :00:00:00.000
    00:05:54.688                             : :00:05:54.479
    00:09:55.053                             : :00:09:55.053
    00:16:53.137                             : :00:16:53.137
    00:24:03.108                             : :00:24:03.108
    00:29:16.546                             : :00:29:16.505
    00:39:01.589                             : :00:39:01.589
    00:48:11.514                             : :00:48:11.347
    00:54:00.237                             : :00:54:00.154
    01:04:07.260                             : :01:04:07.260
    01:11:10.475                             : :01:11:10.391
    01:18:03.679                             : :01:18:03.679
    01:23:10.986                             : :01:23:10.986
    01:29:09.928                             : :01:29:09.928
    01:34:19.904                             : :01:34:19.904
    01:44:30.514                             : :01:44:30.431
    01:53:43.483                             : :01:53:43.275
    02:01:38.416                             : :02:01:38.249
    02:07:20.466                             : :02:07:20.466
    02:13:25.247                             : :02:13:24.997

  • Peso: 4.63 GiB

Sinopsis

La enigmática y brillante Molly Bloom (Jessica Chastain), después de abandonar el esquí profesional, decide mudarse a Los Ángeles con la intención de conseguir un trabajo como camarera y disfrutar del cálido clima durante un tiempo. Por un cúmulo de casualidades, además de sus habilidades empresariales sin explotar, Bloom empezó a organizar las más exclusivas apuestas de póker clandestinas en las que participaban estrellas de Hollywood, deportistas, empresarios y la mafia rusa. Durante una década fue la impulsora de este imperio de partidas de póker, hasta que el FBI la investigó por sus conexiones con el crimen. El prestigioso abogado Charlie Jaffey (Idris Elba) será su única posibilidad para librarse de la cárcel.

Ficha técnica

  • Titulo original: Molly's Game
  • Fecha de lanzamiento: 21-12-2017 (China, United States of America)
  • Director: Aaron Sorkin
  • Género: Crimen, Drama

Video trailer de la película

Enlaces de descarga

Rip de Bluray

Descargar Molly’s Game (2017) 1080p Latino




Aportes de DPeliculasHDmega la pass es:dpeliculashdmega.org Aportes de CinemaniaHD la pass es:cinemaniahdd.com
Guardado en : Crimen , Drama

Películas relacionadas

  • The mule (2018) WEB-DL 1080p Latino

    2018
    The mule (2018) WEB-DL 1080p Latino

    0.0 1h 56m 2018

    A Earl Stone (Eastwood), un octogenario que está en quiebra, solo, y que se enfrenta a la ejecución...

    Director: Clint Eastwood

    Género: Crimen

    Actores: Victor Rasuk

  • Nace Una Estrella (2018) 4K UHD HDR Latino

    2018
    Nace Una Estrella (2018) 4K UHD HDR Latino

    0.0 2h 25m 2018

    Descargar Nace Una Estrella (2018) 4K UHD HDR Latino, Mega, Google Drive. Jackson Maine es una estrella...

    Director: Bradley Cooper

    Género: 4K HDR

    Actores: Willam Belli

  • FBI (2018) Temporada 1 1080p WEB-DL Latino

    2018
    FBI (2018) Temporada 1 1080p WEB-DL Latino

    0.0 0h 43m 2018

    Serie de TV (2018-). Drama vertiginoso sobre el funcionamiento interno de la oficina de Nueva York del...

    Director: Dick Wolf

    Género: Crimen

    Actores: Zeeko Zaki

  • Turn Up Charlie (2019) Temporada 1 NF 1080p Latino

    2019
    Turn Up Charlie (2019) Temporada 1 NF 1080p Latino

    0.0 0h 25m 2019

    Un DJ de mala racha planea reconstruir su carrera musical mientras trabaja como niñera para la salvaje...

    Director: Idris Elba

    Género: Comedia

    Actores: Piper Perabo

Comentarios 2
  • Didier Alfonso Flores González - 01 mayo, 2018

    Hola buenas tardes, los enlaces de google drive me piden permisos de acceso, esto tiene una solución? gracias

    • Dracarys - 01 mayo, 2018

      Descargar de otro servidor….