×

¿Problemas para descargar con Mozilla, EDGE? Deshabilita la opción "Abrir vinculos en una pestaña nueva" tal como lo muestra ésta imagen.

Missing in Action 2 – The Beginning (1985) WEB-DL 1080p Latino – CMHDD

84 vistas

Información de Missing in Action 2 – The Beginning (1985) WEB-DL 1080p Latino – CMHDD

Datos de la película

  • Calidad: WEBDL
  • Audio: Español Latino AC3 2.0 WEB-DL - Ingles AC3 2.0 WEB-DL
  • Subtitulos: Español Latino SRT- FORZADOS SRT
  • Resolución: 19201040p
  • Formato:
  • Codec: H.264
  • Encoder: Dracarys
  • Mediainfo: Clic para Mostrar Datos Ver
  • Format                      : Matroska
    Format version              : Version 4
    File size                   : 9.42 GiB
    Duration                    : 1 h 35 min
    Overall bit rate            : 14.1 Mb/s
    Movie name                  : Missing in Action 2 - The Beginning (1985) WEB-DL 1080p Latino - CMHDD
    Encoded date                : UTC 2024-01-14 23:44:35
    Writing application         : mkvmerge v47.0.0 ('Black Flag') 64-bit
    Writing library             : libebml v1.3.10 + libmatroska v1.5.2

    Video
    ID                          : 1
    Format                      : AVC
    Format/Info                 : Advanced Video Codec
    Format profile              : High@L4
    Format settings             : CABAC / 4 Ref Frames
    Format settings, CABAC      : Yes
    Format settings, Reference  : 4 frames
    Codec ID                    : V_MPEG4/ISO/AVC
    Duration                    : 1 h 35 min
    Bit rate                    : 13.7 Mb/s
    Width                       : 1 920 pixels
    Height                      : 1 040 pixels
    Display aspect ratio        : 1.85:1
    Frame rate mode             : Constant
    Frame rate                  : 23.976 (24000/1001) FPS
    Color space                 : YUV
    Chroma subsampling          : 4:2:0
    Bit depth                   : 8 bits
    Scan type                   : Progressive
    Bits/(Pixel*Frame)          : 0.285
    Stream size                 : 9.12 GiB (97%)
    Language                    : Spanish
    Default                     : Yes
    Forced                      : Yes
    Color range                 : Limited
    Color primaries             : BT.709
    Transfer characteristics    : BT.709
    Matrix coefficients         : BT.709

    Audio #1
    ID                          : 2
    Format                      : E-AC-3
    Format/Info                 : Enhanced AC-3
    Commercial name             : Dolby Digital Plus
    Codec ID                    : A_EAC3
    Duration                    : 1 h 35 min
    Bit rate mode               : Constant
    Bit rate                    : 224 kb/s
    Channel(s)                  : 2 channels
    Channel layout              : L R
    Sampling rate               : 48.0 kHz
    Frame rate                  : 31.250 FPS (1536 SPF)
    Compression mode            : Lossy
    Stream size                 : 153 MiB (2%)
    Language                    : Spanish
    Service kind                : Complete Main
    Default                     : Yes
    Forced                      : No

    Audio #2
    ID                          : 3
    Format                      : E-AC-3
    Format/Info                 : Enhanced AC-3
    Commercial name             : Dolby Digital Plus
    Codec ID                    : A_EAC3
    Duration                    : 1 h 35 min
    Bit rate mode               : Constant
    Bit rate                    : 224 kb/s
    Channel(s)                  : 2 channels
    Channel layout              : L R
    Sampling rate               : 48.0 kHz
    Frame rate                  : 31.250 FPS (1536 SPF)
    Compression mode            : Lossy
    Stream size                 : 153 MiB (2%)
    Language                    : English
    Service kind                : Complete Main
    Default                     : No
    Forced                      : No

    Text #1
    ID                          : 4
    Format                      : UTF-8
    Codec ID                    : S_TEXT/UTF8
    Codec ID/Info               : UTF-8 Plain Text
    Duration                    : 55 s 13 ms
    Bit rate                    : 20 b/s
    Frame rate                  : 0.109 FPS
    Count of elements           : 6
    Stream size                 : 140 Bytes (0%)
    Title                       : Forzado
    Language                    : Spanish
    Default                     : Yes
    Forced                      : Yes

    Text #2
    ID                          : 5
    Format                      : UTF-8
    Codec ID                    : S_TEXT/UTF8
    Codec ID/Info               : UTF-8 Plain Text
    Duration                    : 1 h 30 min
    Bit rate                    : 32 b/s
    Frame rate                  : 0.121 FPS
    Count of elements           : 657
    Stream size                 : 21.9 KiB (0%)
    Language                    : Spanish
    Default                     : No
    Forced                      : No

     

  • Peso: 9.42 GiB

Sinopsis

La guerra de Vietnam hace tiempo que terminó, el coronel Braddock está prisionero con su comando en uno de los campos de concentración más duro de la región.

Ficha técnica

  • Titulo original: Missing in Action 2: The Beginning
  • Fecha de lanzamiento: 01-03-1985 (United States of America)
  • Director: Lance Hool
  • Género: Acción, Bélica

Video trailer de la película

Enlaces de descarga

Rip de Bluray

Descargar Missing in Action 2 – The Beginning (1985) WEB-DL 1080p Latino – CMHDD




Aportes de DPeliculasHDmega la pass es:dpeliculashdmega.org Aportes de CinemaniaHD la pass es:cinemaniahdd.com Aportes recientes:cinemaniahdd.net
Guardado en : Acción , Bélica

Películas relacionadas

descargar Missing in Action 2 – The Beginning (1985) WEB-DL 1080p Latino – CMHDD WEBDL 1080p gratis, Missing in Action 2 – The Beginning (1985) WEB-DL 1080p Latino – CMHDD WEBDL mega 1 link, Missing in Action 2 – The Beginning (1985) WEB-DL 1080p Latino – CMHDD WEBDL pelicula completa, descargar Missing in Action 2 – The Beginning (1985) WEB-DL 1080p Latino – CMHDD WEBDL gratis en mega.

Missing in Action 2 – The Beginning (1985) WEB-DL 1080p Latino – CMHDD pelicula full hd, Missing in Action 2 – The Beginning (1985) WEB-DL 1080p Latino – CMHDD mega latino, Missing in Action 2 – The Beginning (1985) WEB-DL 1080p Latino – CMHDD 4k latino, Missing in Action 2 – The Beginning (1985) WEB-DL 1080p Latino – CMHDD pelicula completa, Missing in Action 2 – The Beginning (1985) WEB-DL 1080p Latino – CMHDD descargar gratis, descargar Missing in Action 2 – The Beginning (1985) WEB-DL 1080p Latino – CMHDD pelicula latino, Missing in Action 2 – The Beginning (1985) WEB-DL 1080p Latino – CMHDD 1 link mega, Missing in Action 2 – The Beginning (1985) WEB-DL 1080p Latino – CMHDD 1 link google drive, Missing in Action 2 – The Beginning (1985) WEB-DL 1080p Latino – CMHDD hd 1080p latino.
Comentarios 0