×

¿Problemas para descargar con Mozilla, EDGE? Deshabilita la opción "Abrir vinculos en una pestaña nueva" tal como lo muestra ésta imagen.

Miss Peregrine Y Los Niños Peculiares (2016) REMUX 1080p Latino

399 vistas

Información de Miss Peregrine Y Los Niños Peculiares (2016) REMUX 1080p Latino

Datos de la película

  • Calidad: Full 1080p
  • Audio: Español Latino AC3 5.1 BLURAY - Ingles DTS-HD Master 7.1 BLURAY
  • Subtitulos: Español Latino PGS - Ingles PGS
  • Resolución: 1920x1080p
  • Formato: MKV
  • Codec: H.264
  • Encoder: CinefiloCool
  • Mediainfo: Clic para Mostrar Datos Ver
  • Miss Peregrine Y Los Niños Peculiares (2016) REMUX 1080p Latino-CMHDD.mkv
    Format                      : Matroska
    Format version              : Version 4
    File size                   : 26.1 GiB
    Duration                    : 2 h 6 min
    Overall bit rate mode       : Variable
    Overall bit rate            : 29.5 Mb/s
    Movie name                  : Miss Peregrine's Home for Peculiar Children (2016) CinemaniaHDD.Net
    Encoded date                : UTC 2020-08-26 04:53:40
    Writing application         : mkvmerge v46.0.0 ('No Deeper Escape') 64-bit
    Writing library             : libebml v1.3.10 + libmatroska v1.5.2
    Attachments                 : CINEMANIAHD.png

    Video
    ID                          : 1
    ID in the original source m : 4113 (0x1011)
    Format                      : AVC
    Format/Info                 : Advanced Video Codec
    Format profile              : High@L4.1
    Format settings             : CABAC / 4 Ref Frames
    Format settings, CABAC      : Yes
    Format settings, Reference  : 4 frames
    Codec ID                    : V_MPEG4/ISO/AVC
    Duration                    : 2 h 6 min
    Bit rate mode               : Variable
    Bit rate                    : 24.5 Mb/s
    Maximum bit rate            : 35.0 Mb/s
    Width                       : 1 920 pixels
    Height                      : 1 080 pixels
    Display aspect ratio        : 16:9
    Frame rate mode             : Constant
    Frame rate                  : 23.976 (24000/1001) FPS
    Color space                 : YUV
    Chroma subsampling          : 4:2:0
    Bit depth                   : 8 bits
    Scan type                   : Progressive
    Bits/(Pixel*Frame)          : 0.493
    Stream size                 : 21.7 GiB (83%)
    Title                       : REMUX 1080p [CinemaniaHDD]
    Default                     : Yes
    Forced                      : No
    Original source medium      : Blu-ray

    Audio #1
    ID                          : 2
    ID in the original source m : 4354 (0x1102)
    Format                      : AC-3
    Format/Info                 : Audio Coding 3
    Commercial name             : Dolby Digital
    Codec ID                    : A_AC3
    Duration                    : 2 h 6 min
    Bit rate mode               : Constant
    Bit rate                    : 448 kb/s
    Channel(s)                  : 6 channels
    Channel layout              : L R C LFE Ls Rs
    Sampling rate               : 48.0 kHz
    Frame rate                  : 31.250 FPS (1536 SPF)
    Compression mode            : Lossy
    Stream size                 : 407 MiB (2%)
    Title                       : Español Latino [CinemaniaHDD]
    Language                    : Spanish
    Service kind                : Complete Main
    Default                     : Yes
    Forced                      : No
    Original source medium      : Blu-ray

    Audio #2
    ID                          : 3
    ID in the original source m : 4352 (0x1100)
    Format                      : DTS ES XLL
    Format/Info                 : Digital Theater Systems
    Commercial name             : DTS-HD Master Audio
    Codec ID                    : A_DTS
    Duration                    : 2 h 6 min
    Bit rate mode               : Variable
    Bit rate                    : 4 528 kb/s
    Channel(s)                  : 8 channels
    Channel layout              : C L R Ls Rs LFE Lb Rb
    Sampling rate               : 48.0 kHz
    Frame rate                  : 93.750 FPS (512 SPF)
    Bit depth                   : 24 bits
    Compression mode            : Lossless
    Stream size                 : 4.01 GiB (15%)
    Title                       : Ingles [CinemaniaHDD]
    Language                    : English
    Default                     : No
    Forced                      : No
    Original source medium      : Blu-ray

    Text #1
    ID                          : 4
    ID in the original source m : 4609 (0x1201)
    Format                      : PGS
    Muxing mode                 : zlib
    Codec ID                    : S_HDMV/PGS
    Codec ID/Info               : Picture based subtitle format used on BDs/HD-DVDs
    Duration                    : 2 h 5 min
    Bit rate                    : 28.2 kb/s
    Count of elements           : 2678
    Stream size                 : 25.4 MiB (0%)
    Title                       : Español-PGS [CinemaniaHDD]
    Language                    : Spanish
    Default                     : No
    Forced                      : No
    Original source medium      : Blu-ray

    Text #2
    ID                          : 5
    ID in the original source m : 4608 (0x1200)
    Format                      : PGS
    Muxing mode                 : zlib
    Codec ID                    : S_HDMV/PGS
    Codec ID/Info               : Picture based subtitle format used on BDs/HD-DVDs
    Duration                    : 2 h 1 min
    Bit rate                    : 37.1 kb/s
    Count of elements           : 3610
    Stream size                 : 32.3 MiB (0%)
    Title                       : Ingles-PGS [CinemaniaHDD]
    Language                    : English
    Default                     : No
    Forced                      : No
    Original source medium      : Blu-ray

    Text #3
    ID                          : 6
    Format                      : UTF-8
    Codec ID                    : S_TEXT/UTF8
    Codec ID/Info               : UTF-8 Plain Text
    Duration                    : 1 h 55 min
    Bit rate                    : 0 b/s
    Count of elements           : 15
    Stream size                 : 417 Bytes (0%)
    Title                       : Forzados-SRT [CinemaniaHDD]
    Language                    : Spanish
    Default                     : Yes
    Forced                      : No

    Text #4
    ID                          : 7
    Format                      : UTF-8
    Codec ID                    : S_TEXT/UTF8
    Codec ID/Info               : UTF-8 Plain Text
    Duration                    : 1 h 58 min
    Bit rate                    : 47 b/s
    Count of elements           : 1337
    Stream size                 : 41.6 KiB (0%)
    Title                       : Español-SRT [CinemaniaHDD]
    Language                    : Spanish
    Default                     : No
    Forced                      : No

    Menu
    00:00:00.000                : en:Chapter 01
    00:03:40.803                : en:Chapter 02
    00:08:38.017                : en:Chapter 03
    00:13:06.827                : en:Chapter 04
    00:15:26.550                : en:Chapter 05
    00:19:47.477                : en:Chapter 06
    00:23:23.652                : en:Chapter 07
    00:27:47.040                : en:Chapter 08
    00:31:06.447                : en:Chapter 09
    00:34:36.783                : en:Chapter 10
    00:39:34.997                : en:Chapter 11
    00:42:42.810                : en:Chapter 12
    00:46:05.637                : en:Chapter 13
    00:48:36.496                : en:Chapter 14
    00:54:16.461                : en:Chapter 15
    00:57:21.479                : en:Chapter 16
    01:02:03.261                : en:Chapter 17
    01:08:20.846                : en:Chapter 18
    01:14:29.006                : en:Chapter 19
    01:18:54.062                : en:Chapter 20
    01:24:15.300                : en:Chapter 21
    01:28:42.442                : en:Chapter 22
    01:33:11.752                : en:Chapter 23
    01:36:29.033                : en:Chapter 24
    01:40:43.787                : en:Chapter 25
    01:46:09.237                : en:Chapter 26
    01:53:35.308                : en:Chapter 27
    02:00:34.393                : en:Chapter 28

  • Peso: 26.1 GiB

Sinopsis

Descargar Miss Peregrine Y Los Niños Peculiares (2016) REMUX 1080p Latino. Una horrible tragedia familiar lleva a Jacob, de 16 años, a viajar por la costa de Gales, donde descubre las ruinas del hogar para niños especiales de Miss Peregrine. Mientras explora los destartalados cuartos y pasillos, se da cuenta que los niños que vivieron allí (uno de los cuales fue su abuelo) eran excepcionales. Quizá eran peligrosos, quizá había una buena razón para ponerlos en cuarentena en una isla desierta; incluso podría ocurrir que todavía estuvieran vivos.

Ficha técnica

Video trailer de la película

Enlaces de descarga

Rip de Bluray

Descargar Miss Peregrine Y Los Niños Peculiares (2016) REMUX 1080p Latino




Aportes de DPeliculasHDmega la pass es:dpeliculashdmega.org Aportes de CinemaniaHD la pass es:cinemaniahdd.com
Guardado en : Aventura , Drama , Familia , Fantasía , Remux

Películas relacionadas

  • Stromboli (2022) NF WEB-DL 1080p Latino

    Stromboli (2022) NF WEB-DL 1080p Latino

    2022
    Stromboli (2022) NF WEB-DL 1080p Latino

    1h 26m 2022

    Descargar Stromboli (2022) NF WEB-DL 1080p Latino. Sara, una mujer que se ha divorciado recientemente,...

    Director: Michiel van Erp

    Género: Drama

    Actores: Tim McInnerny

  • Infiesto (2023) NF WEB-DL 1080p Castellano

    Infiesto (2023) NF WEB-DL 1080p Castellano

    2023
    Infiesto (2023) NF WEB-DL 1080p Castellano

    1h 36m 2023

    Descargar Infiesto (2023) NF WEB-DL 1080p Castellano. Mientras el coronavirus trastoca sus vidas, dos...

    Director: Patxi Amezcua

    Género: Crimen

    Actores: Luis Zahera

  • Espiritu Libre (2023) NF WEB-DL 1080p Latino

    Espiritu Libre (2023) NF WEB-DL 1080p Latino

    2023
    Espiritu Libre (2023) NF WEB-DL 1080p Latino

    1h 49m 2023

    Descargar Espiritu Libre (2023) NF WEB-DL 1080p Latino. La película se basa en la increíble historia...

    Director: Sarah Spillane

    Género: Aventura

    Actores: Vivien Turner

  • Un mundo extraño (2022) HD BDRip 1080p Latino

    Un mundo extraño (2022) HD BDRip 1080p Latino

    2022
    Un mundo extraño (2022) HD BDRip 1080p Latino

    1h 42m 2022

    Descargar Un mundo extraño (2022) HD BDRip 1080p Latino. Los Clades son una familia conocida en todo...

    Director: Thai Bettistea

    Género: Animación

    Actores: Reed Buck

descargar Miss Peregrine Y Los Niños Peculiares (2016) REMUX 1080p Latino Full 1080p 1080p gratis, Miss Peregrine Y Los Niños Peculiares (2016) REMUX 1080p Latino Full 1080p mega 1 link, Miss Peregrine Y Los Niños Peculiares (2016) REMUX 1080p Latino Full 1080p pelicula completa, descargar Miss Peregrine Y Los Niños Peculiares (2016) REMUX 1080p Latino Full 1080p gratis en mega.

Miss Peregrine Y Los Niños Peculiares (2016) REMUX 1080p Latino pelicula full hd, Miss Peregrine Y Los Niños Peculiares (2016) REMUX 1080p Latino mega latino, Miss Peregrine Y Los Niños Peculiares (2016) REMUX 1080p Latino 4k latino, Miss Peregrine Y Los Niños Peculiares (2016) REMUX 1080p Latino pelicula completa, Miss Peregrine Y Los Niños Peculiares (2016) REMUX 1080p Latino descargar gratis, descargar Miss Peregrine Y Los Niños Peculiares (2016) REMUX 1080p Latino pelicula latino, Miss Peregrine Y Los Niños Peculiares (2016) REMUX 1080p Latino 1 link mega, Miss Peregrine Y Los Niños Peculiares (2016) REMUX 1080p Latino 1 link google drive, Miss Peregrine Y Los Niños Peculiares (2016) REMUX 1080p Latino hd 1080p latino.
Comentarios 0