×

¿Problemas para descargar con Mozilla, EDGE? Deshabilita la opción "Abrir vinculos en una pestaña nueva" tal como lo muestra ésta imagen.

Miss Christmas (2017) AMZN WEB-DL 1080p Latino

146 vistas

Información de Miss Christmas (2017) AMZN WEB-DL 1080p Latino

Datos de la película

  • Calidad: 1080p
  • Audio: Español Latino AC3 2.0 WEB-DL - Ingles AC3 2.0 WEB-DL
  • Subtitulos: Español Latino SRT
  • Resolución: 1920x1080
  • Formato: MKV
  • Codec: H.264
  • Encoder: cinemaniahdd
  • Mediainfo: Clic para Mostrar Datos Ver
  • Miss Christmas (2017) AMZN WEB-DL 1080p Latino [CNMNHDD].mkv
    Format                      : Matroska
    Format version              : Version 4
    File size                   : 6.04 GiB
    Duration                    : 1 h 26 min
    Overall bit rate            : 10.0 Mb/s
    Movie name                  : Miss Christmas (2017) - CinemaniaHDD.Net
    Encoded date                : UTC 2021-11-02 16:19:15
    Writing application         : mkvmerge v56.1.0 ('My Friend') 64-bit
    Writing library             : libebml v1.4.2 + libmatroska v1.6.4

    Video
    ID                          : 1
    Format                      : AVC
    Format/Info                 : Advanced Video Codec
    Format profile              : High@L4
    Format settings             : CABAC / 4 Ref Frames
    Format settings, CABAC      : Yes
    Format settings, Reference  : 4 frames
    Codec ID                    : V_MPEG4/ISO/AVC
    Duration                    : 1 h 26 min
    Bit rate mode               : Constant
    Bit rate                    : 10 000 kb/s
    Width                       : 1 920 pixels
    Height                      : 1 080 pixels
    Display aspect ratio        : 16:9
    Frame rate mode             : Constant
    Frame rate                  : 23.976 (24000/1001) FPS
    Color space                 : YUV
    Chroma subsampling          : 4:2:0
    Bit depth                   : 8 bits
    Scan type                   : Progressive
    Bits/(Pixel*Frame)          : 0.201
    Stream size                 : 5.77 GiB (95%)
    Title                       : CinemaniaHDD
    Language                    : English
    Default                     : Yes
    Forced                      : No
    Color range                 : Limited
    Color primaries             : BT.709
    Transfer characteristics    : BT.709
    Matrix coefficients         : BT.709

    Audio #1
    ID                          : 2
    Format                      : E-AC-3
    Format/Info                 : Enhanced AC-3
    Commercial name             : Dolby Digital Plus
    Codec ID                    : A_EAC3
    Duration                    : 1 h 26 min
    Bit rate mode               : Constant
    Bit rate                    : 224 kb/s
    Channel(s)                  : 2 channels
    Channel layout              : L R
    Sampling rate               : 48.0 kHz
    Frame rate                  : 31.250 FPS (1536 SPF)
    Compression mode            : Lossy
    Stream size                 : 139 MiB (2%)
    Title                       : Español latino [CinemaniaHDD]
    Language                    : Spanish
    Service kind                : Complete Main
    Default                     : Yes
    Forced                      : No

    Audio #2
    ID                          : 3
    Format                      : E-AC-3
    Format/Info                 : Enhanced AC-3
    Commercial name             : Dolby Digital Plus
    Codec ID                    : A_EAC3
    Duration                    : 1 h 26 min
    Bit rate mode               : Constant
    Bit rate                    : 224 kb/s
    Channel(s)                  : 2 channels
    Channel layout              : L R
    Sampling rate               : 48.0 kHz
    Frame rate                  : 31.250 FPS (1536 SPF)
    Compression mode            : Lossy
    Stream size                 : 139 MiB (2%)
    Title                       : Inglés [CinemaniaHDD]
    Language                    : English
    Service kind                : Complete Main
    Default                     : No
    Forced                      : No

    Text
    ID                          : 4
    Format                      : UTF-8
    Codec ID                    : S_TEXT/UTF8
    Codec ID/Info               : UTF-8 Plain Text
    Duration                    : 1 h 24 min
    Bit rate                    : 74 b/s
    Count of elements           : 1250
    Stream size                 : 46.0 KiB (0%)
    Title                       : Español latino [CinemaniaHDD]
    Language                    : Spanish
    Default                     : No
    Forced                      : No

     

  • Peso: 6.04 GiB

Sinopsis

Holly es miss navidad, la encargada de poner el tradicional árbol en el centro de chicago. Ante la necesidad de renovarlo, un niño le escribe una carta ofreciéndole el gigantesco abeto de la familia. Cuando Holly llega allí, el padre del niño, Sam, se niega a donarlo , mientras trata de persuadirlo, los días pasan y Holly se va integrando en la familia pero también , en el corazón de Sam.

Ficha técnica

Video trailer de la película

Enlaces de descarga

Rip de Bluray

Descargar Miss Christmas (2017) AMZN WEB-DL 1080p Latino




Aportes de DPeliculasHDmega la pass es:dpeliculashdmega.org Aportes de CinemaniaHD la pass es:cinemaniahdd.com
Guardado en : Drama , Película de TV , Romance

Películas relacionadas

descargar Miss Christmas (2017) AMZN WEB-DL 1080p Latino 1080p 1080p gratis, Miss Christmas (2017) AMZN WEB-DL 1080p Latino 1080p mega 1 link, Miss Christmas (2017) AMZN WEB-DL 1080p Latino 1080p pelicula completa, descargar Miss Christmas (2017) AMZN WEB-DL 1080p Latino 1080p gratis en mega.

Miss Christmas (2017) AMZN WEB-DL 1080p Latino pelicula full hd, Miss Christmas (2017) AMZN WEB-DL 1080p Latino mega latino, Miss Christmas (2017) AMZN WEB-DL 1080p Latino 4k latino, Miss Christmas (2017) AMZN WEB-DL 1080p Latino pelicula completa, Miss Christmas (2017) AMZN WEB-DL 1080p Latino descargar gratis, descargar Miss Christmas (2017) AMZN WEB-DL 1080p Latino pelicula latino, Miss Christmas (2017) AMZN WEB-DL 1080p Latino 1 link mega, Miss Christmas (2017) AMZN WEB-DL 1080p Latino 1 link google drive, Miss Christmas (2017) AMZN WEB-DL 1080p Latino hd 1080p latino.
Comentarios 0