×

¿Problemas para descargar con Mozilla, EDGE? Deshabilita la opción "Abrir vinculos en una pestaña nueva" tal como lo muestra ésta imagen.

Miss Bala (2019) WEB-DL 1080p Latino

980 vistas

Información de Miss Bala (2019) WEB-DL 1080p Latino

miss bala 52453 poster

Datos de la película

  • Calidad: WEBDL
  • Audio: Español Latino AC3 5.1 DVD - Ingles AC3 5.1 iTunes
  • Subtitulos: Español Latino SRT- FORZADOS SRT
  • Resolución: 1920x796
  • Formato: MKV
  • Codec: H.264
  • Encoder: Chesse92
  • Mediainfo: Clic para Mostrar Datos Ver
  • Miss Bala (2019) WEB-DL 1080p Latino.mkv
    Format                      : Matroska
    Format version              : Version 4
    File size                   : 3.86 GiB
    Duration                    : 1 h 43 min
    Overall bit rate            : 5 312 kb/s
    Movie name                  : CinemaniaHDD.Net
    Encoded date                : UTC 2019-04-17 23:58:27
    Writing application         : mkvmerge v22.0.0 ('At The End Of The World') 64-bit
    Writing library             : libebml v1.3.5 + libmatroska v1.4.8
    Cover                       : Yes
    Attachments                 : cover_land.jpg / small_cover.jpg / small_cover_land.jpg / cover.jpg

    Video
    ID                          : 1
    Format                      : AVC
    Format/Info                 : Advanced Video Codec
    Format profile              : High@L4
    Format settings             : CABAC / 5 Ref Frames
    Format settings, CABAC      : Yes
    Format settings, ReFrames   : 5 frames
    Codec ID                    : V_MPEG4/ISO/AVC
    Duration                    : 1 h 43 min
    Bit rate                    : 4 542 kb/s
    Width                       : 1 920 pixels
    Height                      : 796 pixels
    Display aspect ratio        : 2.40:1
    Frame rate mode             : Constant
    Frame rate                  : 23.976 (24000/1001) FPS
    Color space                 : YUV
    Chroma subsampling          : 4:2:0
    Bit depth                   : 8 bits
    Scan type                   : Progressive
    Bits/(Pixel*Frame)          : 0.124
    Stream size                 : 3.30 GiB (86%)
    Language                    : English
    Default                     : Yes
    Forced                      : No
    Color range                 : Limited
    Color primaries             : BT.709
    Transfer characteristics    : BT.709
    Matrix coefficients         : BT.709

    Audio #1
    ID                          : 2
    Format                      : AC-3
    Format/Info                 : Audio Coding 3
    Commercial name             : Dolby Digital
    Codec ID                    : A_AC3
    Duration                    : 1 h 43 min
    Bit rate mode               : Constant
    Bit rate                    : 384 kb/s
    Channel(s)                  : 6 channels
    Channel layout              : L R C LFE Ls Rs
    Sampling rate               : 48.0 kHz
    Frame rate                  : 31.250 FPS (1536 SPF)
    Bit depth                   : 16 bits
    Compression mode            : Lossy
    Delay relative to video     : -42 ms
    Stream size                 : 286 MiB (7%)
    Title                       : CinemaniaHDD.Net
    Language                    : Spanish
    Service kind                : Complete Main
    Default                     : Yes
    Forced                      : No

    Audio #2
    ID                          : 3
    Format                      : AC-3
    Format/Info                 : Audio Coding 3
    Commercial name             : Dolby Digital
    Codec ID                    : A_AC3
    Duration                    : 1 h 43 min
    Bit rate mode               : Constant
    Bit rate                    : 384 kb/s
    Channel(s)                  : 6 channels
    Channel layout              : L R C LFE Ls Rs
    Sampling rate               : 48.0 kHz
    Frame rate                  : 31.250 FPS (1536 SPF)
    Bit depth                   : 16 bits
    Compression mode            : Lossy
    Delay relative to video     : -42 ms
    Stream size                 : 286 MiB (7%)
    Title                       : CinemaniaHDD.Net
    Language                    : English
    Service kind                : Complete Main
    Default                     : No
    Forced                      : No

    Text #1
    ID                          : 4
    Format                      : UTF-8
    Codec ID                    : S_TEXT/UTF8
    Codec ID/Info               : UTF-8 Plain Text
    Duration                    : 1 h 28 min
    Bit rate                    : 0 b/s
    Count of elements           : 7
    Stream size                 : 278 Bytes (0%)
    Title                       : Forzados - CinemaniaHDD.Net
    Language                    : Spanish
    Default                     : Yes
    Forced                      : Yes

    Text #2
    ID                          : 5
    Format                      : UTF-8
    Codec ID                    : S_TEXT/UTF8
    Codec ID/Info               : UTF-8 Plain Text
    Duration                    : 1 h 37 min
    Bit rate                    : 34 b/s
    Count of elements           : 854
    Stream size                 : 24.3 KiB (0%)
    Title                       : CinemaniaHDD.Net
    Language                    : Spanish
    Default                     : No
    Forced                      : No

    Menu
    00:00:00.000                : en:1
    00:05:30.705                : en:2
    00:12:14.775                : en:3
    00:17:38.598                : en:4
    00:23:59.437                : en:5
    00:27:01.619                : en:6
    00:35:18.032                : en:7
    00:41:08.799                : en:8
    00:46:19.234                : en:9
    00:55:57.020                : en:10
    00:59:21.766                : en:11
    01:03:47.948                : en:12
    01:09:16.943                : en:13
    01:20:27.738                : en:14
    01:25:27.370                : en:15
    01:30:05.606                : en:16

  • Peso: 3.86 GiB

Sinopsis

La ganadora de un concurso de belleza se ve obligada a trabajar para un jefe del crimen después de ser testigo de un asesinato. Una nueva versión de la película de 2011, ‘Miss Bala’, dirigida por Gerardo Naranjo y protagonizada por Stephanie Sigman.

Ficha técnica

Video trailer de la película

Enlaces de descarga

Rip de Bluray

Descargar Miss Bala (2019) WEB-DL 1080p Latino




Aportes de DPeliculasHDmega la pass es:dpeliculashdmega.org Aportes de CinemaniaHD la pass es:cinemaniahdd.com
Guardado en : Acción , Drama , Suspenso

Películas relacionadas

  • Lobo Vikingo (2022) NF WEB-DL 1080p Latino

    Lobo Vikingo (2022) NF WEB-DL 1080p Latino

    2022
    Lobo Vikingo (2022) NF WEB-DL 1080p Latino

    1h 38m 2022

    Descargar Lobo Vikingo (2022) NF WEB-DL 1080p Latino. Thale (17) acaba de mudarse con sus padres a un...

    Director: Stig Svendsen

    Género: Netflix

    Actores: Vidar Magnussen

  • Stromboli (2022) NF WEB-DL 1080p Latino

    Stromboli (2022) NF WEB-DL 1080p Latino

    2022
    Stromboli (2022) NF WEB-DL 1080p Latino

    1h 26m 2022

    Descargar Stromboli (2022) NF WEB-DL 1080p Latino. Sara, una mujer que se ha divorciado recientemente,...

    Director: Michiel van Erp

    Género: Drama

    Actores: Tim McInnerny

  • Infiesto (2023) NF WEB-DL 1080p Castellano

    Infiesto (2023) NF WEB-DL 1080p Castellano

    2023
    Infiesto (2023) NF WEB-DL 1080p Castellano

    1h 36m 2023

    Descargar Infiesto (2023) NF WEB-DL 1080p Castellano. Mientras el coronavirus trastoca sus vidas, dos...

    Director: Patxi Amezcua

    Género: Crimen

    Actores: Luis Zahera

  • Espiritu Libre (2023) NF WEB-DL 1080p Latino

    Espiritu Libre (2023) NF WEB-DL 1080p Latino

    2023
    Espiritu Libre (2023) NF WEB-DL 1080p Latino

    1h 49m 2023

    Descargar Espiritu Libre (2023) NF WEB-DL 1080p Latino. La película se basa en la increíble historia...

    Director: Sarah Spillane

    Género: Aventura

    Actores: Vivien Turner

descargar Miss Bala (2019) WEB-DL 1080p Latino WEBDL 1080p gratis, Miss Bala (2019) WEB-DL 1080p Latino WEBDL mega 1 link, Miss Bala (2019) WEB-DL 1080p Latino WEBDL pelicula completa, descargar Miss Bala (2019) WEB-DL 1080p Latino WEBDL gratis en mega.

Miss Bala (2019) WEB-DL 1080p Latino pelicula full hd, Miss Bala (2019) WEB-DL 1080p Latino mega latino, Miss Bala (2019) WEB-DL 1080p Latino 4k latino, Miss Bala (2019) WEB-DL 1080p Latino pelicula completa, Miss Bala (2019) WEB-DL 1080p Latino descargar gratis, descargar Miss Bala (2019) WEB-DL 1080p Latino pelicula latino, Miss Bala (2019) WEB-DL 1080p Latino 1 link mega, Miss Bala (2019) WEB-DL 1080p Latino 1 link google drive, Miss Bala (2019) WEB-DL 1080p Latino hd 1080p latino.
Comentarios 0