Misión imposible 6: Repercusion (2018) 1080p IMAX Latino

2.751 vistas
1 estrella2 estrellas3 estrellas4 estrellas5 estrellas (4 votos, promedio: 3,00 de 5)
Cargando…

Información de Misión imposible 6: Repercusion (2018) 1080p IMAX Latino

Datos de la película

  • Calidad: 1080p
  • Audio: Español Latino AC3 5.1 BLURAY - Ingles AC3 5.1 BLURAY
  • Subtitulos: Español Latino SRT - Ingles SRT
  • Resolución: 1920x1016p
  • Formato: MKV
  • Codec: H.264
  • Encoder: CinefiloCool
  • Mediainfo: Clic para Mostrar Datos Ver
  • Mision Imposible - Repercusion (2018) 1080p IMAX latino.mkv
    Format                      : Matroska
    Format version              : Version 4 / Version 2
    File size                   : 4.53 GiB
    Duration                    : 2 h 27 min
    Overall bit rate            : 4 397 kb/s
    Movie name                  : CinemaniaHDD.Net
    Encoded date                : UTC 2018-11-14 21:17:37 / UTC 2018-11-14T09:43:23Z
    Writing application         : mkvmerge v25.0.0 ('Prog Noir') 64-bit
    Writing library             : libebml v1.3.6 + libmatroska v1.4.9 / Lavf57.7.2

    Video
    ID                          : 1
    Format                      : AVC
    Format/Info                 : Advanced Video Codec
    Format profile              : [email protected]
    Format settings             : CABAC / 4 Ref Frames
    Format settings, CABAC      : Yes
    Format settings, RefFrames  : 4 frames
    Codec ID                    : V_MPEG4/ISO/AVC
    Duration                    : 2 h 27 min
    Bit rate                    : 3 500 kb/s
    Width                       : 1 920 pixels
    Height                      : 1 016 pixels
    Display aspect ratio        : 1.890
    Frame rate mode             : Constant
    Frame rate                  : 23.976 (24000/1001) FPS
    Color space                 : YUV
    Chroma subsampling          : 4:2:0
    Bit depth                   : 8 bits
    Scan type                   : Progressive
    Bits/(Pixel*Frame)          : 0.075
    Stream size                 : 3.51 GiB (78%)
    Title                       : HD1080p IMAX [Bluray]
    Writing library             : x264 core 155 r2893 b00bcaf
    Encoding settings           : cabac=1 / ref=4 / deblock=1:0:0 / analyse=0x3:0x133 / me=umh / subme=9 / psy=1 / psy_rd=1.00:0.00 / mixed_ref=1 / me_range=16 / chroma_me=1 / trellis=2 / 8x8dct=1 / cqm=0 / deadzone=21,11 / fast_pskip=1 / chroma_qp_offset=-2 / threads=32 / lookahead_threads=2 / sliced_threads=0 / nr=0 / decimate=1 / interlaced=0 / bluray_compat=0 / constrained_intra=0 / bframes=3 / b_pyramid=2 / b_adapt=2 / b_bias=0 / direct=3 / weightb=1 / open_gop=0 / weightp=2 / keyint=240 / keyint_min=24 / scenecut=40 / intra_refresh=0 / rc_lookahead=60 / rc=2pass / mbtree=1 / bitrate=3500 / ratetol=1.0 / qcomp=0.60 / qpmin=0 / qpmax=69 / qpstep=4 / cplxblur=20.0 / qblur=0.5 / vbv_maxrate=62500 / vbv_bufsize=78125 / nal_hrd=none / filler=0 / ip_ratio=1.40 / aq=1:1.00
    Default                     : Yes
    Forced                      : No
    Color range                 : Limited
    Color primaries             : BT.709
    Transfer characteristics    : BT.709
    Matrix coefficients         : BT.709
    Statistics Tags Issue       : mkvmerge v25.0.0 ('Prog Noir') 64-bit 2018-11-14 21:17:37 / mkvmerge v25.0.0 ('Prog Noir') 64-bit 2018-11-14 21:17:37 / UTC 2018-11-14T09:43:23Z
    FromStats_BitRate           : 3498948
    FromStats_Duration          : 02:27:24.878000000
    FromStats_FrameCount        : 212065
    FromStats_StreamSize        : 3868471233

    Audio #1
    ID                          : 2
    Format                      : AC-3
    Format/Info                 : Audio Coding 3
    Format settings, Endianness : Big
    Codec ID                    : A_AC3
    Duration                    : 2 h 27 min
    Bit rate mode               : Constant
    Bit rate                    : 448 kb/s
    Channel(s)                  : 6 channels
    Channel positions           : Front: L C R, Side: L R, LFE
    Sampling rate               : 48.0 kHz
    Frame rate                  : 31.250 FPS (1536 SPF)
    Bit depth                   : 16 bits
    Compression mode            : Lossy
    Delay relative to video     : -5 ms
    Stream size                 : 472 MiB (10%)
    Title                       : AC3_5.1_Bluray_Esp
    Language                    : Spanish
    Service kind                : Complete Main
    Default                     : Yes
    Forced                      : Yes
    Statistics Tags Issue       : mkvmerge v25.0.0 ('Prog Noir') 64-bit 2018-11-14 21:17:37 / mkvmerge v25.0.0 ('Prog Noir') 64-bit 2018-11-14 21:17:37 / UTC 2018-11-14T09:43:23Z
    FromStats_BitRate           : 448000
    FromStats_Duration          : 02:27:24.960000000
    FromStats_FrameCount        : 276405
    FromStats_StreamSize        : 495317760

    Audio #2
    ID                          : 3
    Format                      : AC-3
    Format/Info                 : Audio Coding 3
    Format settings, Endianness : Big
    Codec ID                    : A_AC3
    Duration                    : 2 h 27 min
    Bit rate mode               : Constant
    Bit rate                    : 448 kb/s
    Channel(s)                  : 6 channels
    Channel positions           : Front: L C R, Side: L R, LFE
    Sampling rate               : 48.0 kHz
    Frame rate                  : 31.250 FPS (1536 SPF)
    Bit depth                   : 16 bits
    Compression mode            : Lossy
    Stream size                 : 472 MiB (10%)
    Title                       : AC3_5.1_Bluray_Eng
    Language                    : English
    Service kind                : Complete Main
    Default                     : No
    Forced                      : No
    Statistics Tags Issue       : mkvmerge v25.0.0 ('Prog Noir') 64-bit 2018-11-14 21:17:37 / mkvmerge v25.0.0 ('Prog Noir') 64-bit 2018-11-14 21:17:37 / UTC 2018-11-14T09:43:23Z
    FromStats_BitRate           : 448000
    FromStats_Duration          : 02:27:24.896000000
    FromStats_FrameCount        : 276403
    FromStats_StreamSize        : 495314176

    Text #1
    ID                          : 4
    Format                      : UTF-8
    Codec ID                    : S_TEXT/UTF8
    Codec ID/Info               : UTF-8 Plain Text
    Title                       : Sub_Forzados
    Language                    : Spanish
    Default                     : Yes
    Forced                      : Yes
    Statistics Tags Issue       : mkvmerge v25.0.0 ('Prog Noir') 64-bit 2018-11-14 21:17:37 / mkvmerge v25.0.0 ('Prog Noir') 64-bit 2018-11-14 21:17:37 / UTC 2018-11-14T09:43:23Z
    FromStats_BitRate           : 0
    FromStats_Duration          : 02:01:51.079000000
    FromStats_FrameCount        : 34
    FromStats_StreamSize        : 747

    Text #2
    ID                          : 5
    Format                      : UTF-8
    Codec ID                    : S_TEXT/UTF8
    Codec ID/Info               : UTF-8 Plain Text
    Title                       : Sub_Esp
    Language                    : Spanish
    Default                     : No
    Forced                      : No
    Statistics Tags Issue       : mkvmerge v25.0.0 ('Prog Noir') 64-bit 2018-11-14 21:17:37 / mkvmerge v25.0.0 ('Prog Noir') 64-bit 2018-11-14 21:17:37 / UTC 2018-11-14T09:43:23Z
    FromStats_BitRate           : 46
    FromStats_Duration          : 02:19:10.823000000
    FromStats_FrameCount        : 1364
    FromStats_StreamSize        : 48656

    Text #3
    ID                          : 6
    Format                      : UTF-8
    Codec ID                    : S_TEXT/UTF8
    Codec ID/Info               : UTF-8 Plain Text
    Title                       : Sub_Eng
    Language                    : English
    Default                     : No
    Forced                      : No
    Statistics Tags Issue       : mkvmerge v25.0.0 ('Prog Noir') 64-bit 2018-11-14 21:17:37 / mkvmerge v25.0.0 ('Prog Noir') 64-bit 2018-11-14 21:17:37 / UTC 2018-11-14T09:43:23Z
    FromStats_BitRate           : 47
    FromStats_Duration          : 02:19:10.713000000
    FromStats_FrameCount        : 1249
    FromStats_StreamSize        : 49584

    Menu
    00:00:00.000                : :Chapter 1
    00:10:37.011                : :Chapter 2
    00:17:11.405                : :Chapter 3
    00:26:57.241                : :Chapter 4
    00:35:56.655                : :Chapter 5
    00:49:18.414                : :Chapter 6
    01:00:00.806                : :Chapter 7
    01:10:23.720                : :Chapter 8
    01:17:07.289                : :Chapter 9
    01:28:28.470                : :Chapter 10
    01:39:09.527                : :Chapter 11
    01:46:26.547                : :Chapter 12
    01:55:45.564                : :Chapter 13
    02:03:10.592                : :Chapter 14
    02:14:00.282                : :Chapter 15
    02:19:48.088                : :Chapter 16

  • Peso: 4.53 GiB

Sinopsis

Descargar Misión imposible 6: Repercusion (2018) 1080p IMAX Latino, Mega, Google Drive. Un traficante de armas y un grupo de terroristas pretenden realizar un triple ataque nuclear con tres artefactos de plutonio, los cuales se pierden. Ethan Hunt y su equipo tendrán que recuperarlos antes de que caigan en las manos equivocadas.

Ficha técnica

Video trailer de la película

Enlaces de descarga

Rip de Bluray

Descargar Misión imposible 6: Repercusion (2018) 1080p IMAX Latino




Aportes de DPeliculasHDmega la pass es:dpeliculashdmega.org Aportes de CinemaniaHD la pass es:cinemaniahdd.com
Guardado en : Acción , HD 1080p , Suspense

Películas relacionadas

  • The mule (2018) WEB-DL 1080p Latino

    2018
    The mule (2018) WEB-DL 1080p Latino

    0.0 1h 56m 2018

    A Earl Stone (Eastwood), un octogenario que está en quiebra, solo, y que se enfrenta a la ejecución...

    Director: Clint Eastwood

    Género: Crimen

    Actores: Victor Rasuk

  • Aquaman (2018) Full HD 1080p Latino

    2018
    Aquaman (2018) Full HD 1080p Latino

    5.0 2h 24m 2018

    Un icono durante más de 70 años, Aquaman (Jason Momoa) es el Rey de los Siete Mares. Este reacio gobernante...

    Director: James Wan

    Género: Acción

    Actores: Yahya Abdul-Mateen II

  • Bumblebee (2018) WEB-DL 1080p Castellano

    2018
    Bumblebee (2018) WEB-DL 1080p Castellano

    3.0 1h 54m 2018

    Sexta entrega de la saga 'Transformers', esta vez centrada en el "hermano pequeño" de los Autobots,...

    Director: Travis Knight

    Género: Acción

    Actores: Yianni Apostolopolous

  • Robin Hood (2018) 4K UHD HDR Latino

    2018
    Robin Hood (2018) 4K UHD HDR Latino

    0.0 1h 56m 2018

    Descargar Robin Hood (2018) 4K UHD HDR Latino, Mega, Google Drive. Cuando el joven Robin Hood (Taron...

    Director: Otto Bathurst

    Género: 4K HDR

    Actores: Yasen Atour

Comentarios 2
  • Ivan Ayala - 15 noviembre, 2018

    Aportazo! Muchas gracias…Descargando…

  • gaston - 15 noviembre, 2018

    Hola para cuando la plateada ,gracias x los aportes