Misión imposible 6: Repercusion (2018) Full 1080p IMAX Latino

9.391 vistas
1 estrella2 estrellas3 estrellas4 estrellas5 estrellas (6 votos, promedio: 3,50 de 5)
Cargando…

Información de Misión imposible 6: Repercusion (2018) Full 1080p IMAX Latino

Datos de la película

  • Calidad: Full 1080p
  • Audio: Español Latino AC3 5.1 BLURAY - DTS-HD Master 7.1 BLURAY
  • Subtitulos: Español Latino PGS - Ingles PGS
  • Resolución: 1920x1080p
  • Formato: MKV
  • Codec: H.264
  • Encoder: CinefiloCool
  • Mediainfo: Clic para Mostrar Datos Ver
  • Mision Imposible - Repercusion (2018) Full 1080p Latino.mkv
    Format                      : Matroska
    Format version              : Version 4 / Version 2
    File size                   : 12.9 GiB
    Duration                    : 2 h 27 min
    Overall bit rate mode       : Variable
    Overall bit rate            : 12.6 Mb/s
    Movie name                  : CinemaniaHDD.Net
    Encoded date                : UTC 2018-11-16 02:35:08
    Writing application         : mkvmerge v25.0.0 ('Prog Noir') 64-bit
    Writing library             : libebml v1.3.6 + libmatroska v1.4.9

    Video
    ID                          : 1
    Format                      : AVC
    Format/Info                 : Advanced Video Codec
    Format profile              : [email protected]
    Format settings             : CABAC / 4 Ref Frames
    Format settings, CABAC      : Yes
    Format settings, RefFrames  : 4 frames
    Codec ID                    : V_MPEG4/ISO/AVC
    Duration                    : 2 h 27 min
    Bit rate                    : 6 790 kb/s
    Width                       : 1 920 pixels
    Height                      : 1 080 pixels
    Display aspect ratio        : 16:9
    Frame rate mode             : Constant
    Frame rate                  : 23.976 (24000/1001) FPS
    Color space                 : YUV
    Chroma subsampling          : 4:2:0
    Bit depth                   : 8 bits
    Scan type                   : Progressive
    Bits/(Pixel*Frame)          : 0.137
    Stream size                 : 6.99 GiB (54%)
    Title                       : Full HD1080p [Bluray]
    Writing library             : x264 core 155 r2893 b00bcaf
    Encoding settings           : cabac=1 / ref=4 / deblock=1:0:0 / analyse=0x3:0x133 / me=esa / subme=10 / psy=1 / psy_rd=1.00:0.00 / mixed_ref=1 / me_range=24 / chroma_me=1 / trellis=2 / 8x8dct=1 / cqm=0 / deadzone=21,11 / fast_pskip=1 / chroma_qp_offset=-2 / threads=34 / lookahead_threads=5 / sliced_threads=0 / nr=0 / decimate=1 / interlaced=0 / bluray_compat=0 / constrained_intra=0 / bframes=8 / b_pyramid=2 / b_adapt=2 / b_bias=0 / direct=3 / weightb=1 / open_gop=0 / weightp=2 / keyint=240 / keyint_min=24 / scenecut=40 / intra_refresh=0 / rc_lookahead=60 / rc=crf / mbtree=1 / crf=20.0 / qcomp=0.60 / qpmin=0 / qpmax=69 / qpstep=4 / vbv_maxrate=62500 / vbv_bufsize=78125 / crf_max=0.0 / nal_hrd=none / filler=0 / ip_ratio=1.40 / aq=1:1.00
    Default                     : Yes
    Forced                      : No
    Color range                 : Limited
    Color primaries             : BT.709
    Transfer characteristics    : BT.709
    Matrix coefficients         : BT.709

    Audio #1
    ID                          : 2
    Format                      : AC-3
    Format/Info                 : Audio Coding 3
    Format settings, Endianness : Big
    Codec ID                    : A_AC3
    Duration                    : 2 h 27 min
    Bit rate mode               : Constant
    Bit rate                    : 640 kb/s
    Channel(s)                  : 6 channels
    Channel positions           : Front: L C R, Side: L R, LFE
    Sampling rate               : 48.0 kHz
    Frame rate                  : 31.250 FPS (1536 SPF)
    Bit depth                   : 16 bits
    Compression mode            : Lossy
    Stream size                 : 675 MiB (5%)
    Title                       : AC3_5.1_Bluray_Esp
    Language                    : Spanish
    Service kind                : Complete Main
    Default                     : Yes
    Forced                      : No

    Audio #2
    ID                          : 3
    Format                      : TrueHD
    Format profile              : TrueHD+Atmos / TrueHD
    Codec ID                    : A_TRUEHD
    Duration                    : 2 h 27 min
    Bit rate mode               : Variable
    Bit rate                    : 5 026 kb/s
    Maximum bit rate            : 8 175 kb/s
    Channel(s)                  : Object Based / 8 channels
    Channel positions           : Object Based / Front: L C R, Side: L R, Back: L R, LFE
    Sampling rate               :  / 48.0 kHz
    Frame rate                  : 1 200.000 FPS (40 SPF)
    Compression mode            : Lossless
    Stream size                 : 5.17 GiB (40%)
    Title                       : DTS-HD_7.1_Bluray_Eng
    Language                    : English
    Default                     : No
    Forced                      : No

    Text #1
    ID                          : 4
    Format                      : PGS
    Muxing mode                 : zlib
    Codec ID                    : S_HDMV/PGS
    Codec ID/Info               : Picture based subtitle format used on BDs/HD-DVDs
    Duration                    : 2 h 1 min
    Bit rate                    : 480 b/s
    Count of elements           : 67
    Stream size                 : 429 KiB (0%)
    Title                       : Sub_Forzados [PGS]
    Language                    : Spanish
    Default                     : Yes
    Forced                      : No

    Text #2
    ID                          : 5
    Format                      : PGS
    Muxing mode                 : zlib
    Codec ID                    : S_HDMV/PGS
    Codec ID/Info               : Picture based subtitle format used on BDs/HD-DVDs
    Duration                    : 2 h 19 min
    Bit rate                    : 28.2 kb/s
    Count of elements           : 2788
    Stream size                 : 28.1 MiB (0%)
    Title                       : Sub_Esp [PGS]
    Language                    : Spanish
    Default                     : No
    Forced                      : No

    Text #3
    ID                          : 6
    Format                      : PGS
    Muxing mode                 : zlib
    Codec ID                    : S_HDMV/PGS
    Codec ID/Info               : Picture based subtitle format used on BDs/HD-DVDs
    Duration                    : 2 h 19 min
    Bit rate                    : 35.2 kb/s
    Count of elements           : 3747
    Stream size                 : 35.1 MiB (0%)
    Title                       : Sub_Forced
    Language                    : English
    Default                     : No
    Forced                      : No

    Text #4
    ID                          : 7
    Format                      : PGS
    Muxing mode                 : zlib
    Codec ID                    : S_HDMV/PGS
    Codec ID/Info               : Picture based subtitle format used on BDs/HD-DVDs
    Duration                    : 2 h 19 min
    Bit rate                    : 29.7 kb/s
    Count of elements           : 3111
    Stream size                 : 29.5 MiB (0%)
    Title                       : Sub_Eng [PGS]
    Language                    : English
    Default                     : No
    Forced                      : No

    Menu
    00:00:00.000                : :Chapter 1
    00:10:37.095                : :Chapter 2
    00:17:11.531                : :Chapter 3
    00:26:57.241                : :Chapter 4
    00:35:56.655                : :Chapter 5
    00:49:18.414                : :Chapter 6
    01:00:00.806                : :Chapter 7
    01:10:23.720                : :Chapter 8
    01:17:07.373                : :Chapter 9
    01:28:28.470                : :Chapter 10
    01:39:09.527                : :Chapter 11
    01:46:26.547                : :Chapter 12
    01:55:45.564                : :Chapter 13
    02:03:10.592                : :Chapter 14
    02:14:01.408                : :Chapter 15
    02:19:48.171                : :Chapter 16

  • Peso: 12.9 GiB

Sinopsis

Descargar Misión imposible 6: Repercusion (2018) Full 1080p IMAX Latino, Mega, Google Drive. Un traficante de armas y un grupo de terroristas pretenden realizar un triple ataque nuclear con tres artefactos de plutonio, los cuales se pierden. Ethan Hunt y su equipo tendrán que recuperarlos antes de que caigan en las manos equivocadas.

Ficha técnica

Video trailer de la película

Enlaces de descarga

Rip de Bluray

Descargar Misión imposible 6: Repercusion (2018) Full 1080p IMAX Latino




Aportes de DPeliculasHDmega la pass es:dpeliculashdmega.org Aportes de CinemaniaHD la pass es:cinemaniahdd.com

Películas relacionadas

  • Yo, robot (2004) REMUX (Open Matte) 1080p Latino

    2004
    Yo, robot (2004) REMUX (Open Matte) 1080p Latino

    3.7 2h 3m 2004

    En el año 2035, los robots son unos dispositivos que usamos todos los días y en quienes confiamos,...

    Director: Tracey Poirier

    Género: Acción

    Actores: Will Smith

  • Replicas (2018) REMUX 1080p Latino

    2018
    Replicas (2018) REMUX 1080p Latino

    0.0 1h 47m 2018

    Thriller de ciencia ficción que se centra en un neurocientífico que, después de sufrir un accidente...

    Director: Jeffrey Nachmanoff

    Género: Ciencia ficción

    Actores: Thomas Middleditch

  • Man On A Ledge (2012) REMUX (Open Matte) 1080P Latino

    2012
    Man On A Ledge (2012) REMUX (Open Matte) 1080P Latino

    0.0 1h 42m 2012

    Nick Cassidy (Sam Worthington), un antiguo agente de policía, se escapa de la cárcel y se dirige al...

    Director: Melissa Kalbfus

    Género: Acción

    Actores: William Sadler

  • Miss Bala (2019) 1080p Latino

    2019
    Miss Bala (2019) 1080p Latino

    0.0 1h 44m 2019

    La ganadora de un concurso de belleza se ve obligada a trabajar para un jefe del crimen después de ser...

    Director: Catherine Hardwicke

    Género: Acción

    Actores: Roberto Sosa

Comentarios 6
  • slash - 03 diciembre, 2018

    Gracias, quedo de lujo, una pregunta, quería bajar las de Robocop, pero ya no las encontré ¿las quitaron o hay que pasar de página en página para llegar a los post?

    • dpelis - 03 diciembre, 2018

      no estan en esta pagina, pronto se agregaran, saludos

  • The Principal - 17 noviembre, 2018

    Hola Amigo…puedes si no es molestia reparar los enlaces de drive ya q no funcionan…….muy atento….Gracias !

    • dpelis - 18 noviembre, 2018

      usar utorrnet

  • jhon - 16 noviembre, 2018

    gracias por esta versión en formato imax si hay mas en este formato es bien recibido

  • ocpgaiden - 16 noviembre, 2018

    Gracias por Misión Imposible 6: Repercusión con audio DTS-HD 7.1 ch, saludos