Mision: Imposible (1996) 1080p Latino

414 vistas
1 estrella2 estrellas3 estrellas4 estrellas5 estrellas (1 votos, promedio: 1,00 de 5)
Cargando…

Información de Mision: Imposible (1996) 1080p Latino

Datos de la película

  • Calidad: 1080p
  • Audio: Español Latino AC3 5.1 BLURAY - Ingles AC3 5.1 BLURAY
  • Subtitulos: Español Latino SRT - Ingles SRT
  • Resolución: 1920x804p
  • Formato: MKV
  • Codec: H.264
  • Encoder: CinefiloCool
  • Mediainfo: Clic para Mostrar Datos Ver
  • Mision Imposible (1996) 1080p Latino.mkv
    Format                      : Matroska
    Format version              : Version 4 / Version 2
    File size                   : 3.53 GiB
    Duration                    : 1 h 50 min
    Overall bit rate            : 4 590 kb/s
    Movie name                  : CinemaniaHDD.Net
    Encoded date                : UTC 2018-11-08 02:57:38 / UTC 2018-11-07T09:01:32Z
    Writing application         : mkvmerge v25.0.0 ('Prog Noir') 64-bit
    Writing library             : libebml v1.3.6 + libmatroska v1.4.9 / Lavf57.7.2

    Video
    ID                          : 1
    Format                      : AVC
    Format/Info                 : Advanced Video Codec
    Format profile              : High@L4.1
    Format settings             : CABAC / 5 Ref Frames
    Format settings, CABAC      : Yes
    Format settings, RefFrames  : 5 frames
    Codec ID                    : V_MPEG4/ISO/AVC
    Duration                    : 1 h 50 min
    Bit rate                    : 3 500 kb/s
    Width                       : 1 920 pixels
    Height                      : 804 pixels
    Display aspect ratio        : 2.40:1
    Frame rate mode             : Constant
    Frame rate                  : 23.976 (24000/1001) FPS
    Color space                 : YUV
    Chroma subsampling          : 4:2:0
    Bit depth                   : 8 bits
    Scan type                   : Progressive
    Bits/(Pixel*Frame)          : 0.095
    Stream size                 : 2.63 GiB (74%)
    Title                       : HD1080p [Bluray]
    Writing library             : x264 core 155 r2893 b00bcaf
    Encoding settings           : cabac=1 / ref=5 / deblock=1:0:0 / analyse=0x3:0x133 / me=umh / subme=9 / psy=1 / psy_rd=1.00:0.00 / mixed_ref=1 / me_range=16 / chroma_me=1 / trellis=2 / 8x8dct=1 / cqm=0 / deadzone=21,11 / fast_pskip=1 / chroma_qp_offset=-2 / threads=25 / lookahead_threads=2 / sliced_threads=0 / nr=0 / decimate=1 / interlaced=0 / bluray_compat=0 / constrained_intra=0 / bframes=3 / b_pyramid=2 / b_adapt=2 / b_bias=0 / direct=3 / weightb=1 / open_gop=0 / weightp=2 / keyint=240 / keyint_min=24 / scenecut=40 / intra_refresh=0 / rc_lookahead=60 / rc=2pass / mbtree=1 / bitrate=3500 / ratetol=1.0 / qcomp=0.60 / qpmin=0 / qpmax=69 / qpstep=4 / cplxblur=20.0 / qblur=0.5 / vbv_maxrate=62500 / vbv_bufsize=78125 / nal_hrd=none / filler=0 / ip_ratio=1.40 / aq=1:1.00
    Default                     : Yes
    Forced                      : No
    Color range                 : Limited
    Color primaries             : BT.709
    Transfer characteristics    : BT.709
    Matrix coefficients         : BT.709
    Statistics Tags Issue       : mkvmerge v25.0.0 ('Prog Noir') 64-bit 2018-11-08 02:57:38 / mkvmerge v25.0.0 ('Prog Noir') 64-bit 2018-11-08 02:57:38 / UTC 2018-11-07T09:01:32Z
    FromStats_BitRate           : 3499342
    FromStats_Duration          : 01:50:12.606000000
    FromStats_FrameCount        : 158544
    FromStats_StreamSize        : 2892471383

    Audio #1
    ID                          : 2
    Format                      : AC-3
    Format/Info                 : Audio Coding 3
    Format settings, Endianness : Big
    Codec ID                    : A_AC3
    Duration                    : 1 h 50 min
    Bit rate mode               : Constant
    Bit rate                    : 640 kb/s
    Channel(s)                  : 6 channels
    Channel positions           : Front: L C R, Side: L R, LFE
    Sampling rate               : 48.0 kHz
    Frame rate                  : 31.250 FPS (1536 SPF)
    Bit depth                   : 16 bits
    Compression mode            : Lossy
    Stream size                 : 505 MiB (14%)
    Title                       : AC3_5.1_Bluray_Esp
    Language                    : Spanish
    Service kind                : Complete Main
    Default                     : Yes
    Forced                      : Yes
    Statistics Tags Issue       : mkvmerge v25.0.0 ('Prog Noir') 64-bit 2018-11-08 02:57:38 / mkvmerge v25.0.0 ('Prog Noir') 64-bit 2018-11-08 02:57:38 / UTC 2018-11-07T09:01:32Z
    FromStats_BitRate           : 640000
    FromStats_Duration          : 01:50:12.608000000
    FromStats_FrameCount        : 206644
    FromStats_StreamSize        : 529008640

    Audio #2
    ID                          : 3
    Format                      : AC-3
    Format/Info                 : Audio Coding 3
    Format settings, Endianness : Big
    Codec ID                    : A_AC3
    Duration                    : 1 h 50 min
    Bit rate mode               : Constant
    Bit rate                    : 448 kb/s
    Channel(s)                  : 6 channels
    Channel positions           : Front: L C R, Side: L R, LFE
    Sampling rate               : 48.0 kHz
    Frame rate                  : 31.250 FPS (1536 SPF)
    Bit depth                   : 16 bits
    Compression mode            : Lossy
    Stream size                 : 353 MiB (10%)
    Title                       : AC3_5.1_Bluray_Eng
    Language                    : English
    Service kind                : Complete Main
    Default                     : No
    Forced                      : No
    Statistics Tags Issue       : mkvmerge v25.0.0 ('Prog Noir') 64-bit 2018-11-08 02:57:38 / mkvmerge v25.0.0 ('Prog Noir') 64-bit 2018-11-08 02:57:38 / UTC 2018-11-07T09:01:32Z
    FromStats_BitRate           : 448000
    FromStats_Duration          : 01:50:12.608000000
    FromStats_FrameCount        : 206644
    FromStats_StreamSize        : 370306048

    Text #1
    ID                          : 4
    Format                      : UTF-8
    Codec ID                    : S_TEXT/UTF8
    Codec ID/Info               : UTF-8 Plain Text
    Title                       : Sub_Forzados
    Language                    : Spanish
    Default                     : Yes
    Forced                      : Yes
    Statistics Tags Issue       : mkvmerge v25.0.0 ('Prog Noir') 64-bit 2018-11-08 02:57:38 / mkvmerge v25.0.0 ('Prog Noir') 64-bit 2018-11-08 02:57:38 / UTC 2018-11-07T09:01:32Z
    FromStats_BitRate           : 0
    FromStats_Duration          : 01:31:05.126000000
    FromStats_FrameCount        : 25
    FromStats_StreamSize        : 476

    Text #2
    ID                          : 5
    Format                      : UTF-8
    Codec ID                    : S_TEXT/UTF8
    Codec ID/Info               : UTF-8 Plain Text
    Title                       : Sub_Esp
    Language                    : Spanish
    Default                     : No
    Forced                      : No
    Statistics Tags Issue       : mkvmerge v25.0.0 ('Prog Noir') 64-bit 2018-11-08 02:57:38 / mkvmerge v25.0.0 ('Prog Noir') 64-bit 2018-11-08 02:57:38 / UTC 2018-11-07T09:01:32Z
    FromStats_BitRate           : 36
    FromStats_Duration          : 01:45:27.613000000
    FromStats_FrameCount        : 913
    FromStats_StreamSize        : 29081

    Text #3
    ID                          : 6
    Format                      : UTF-8
    Codec ID                    : S_TEXT/UTF8
    Codec ID/Info               : UTF-8 Plain Text
    Title                       : Sub_Eng
    Language                    : English
    Default                     : No
    Forced                      : No
    Statistics Tags Issue       : mkvmerge v25.0.0 ('Prog Noir') 64-bit 2018-11-08 02:57:38 / mkvmerge v25.0.0 ('Prog Noir') 64-bit 2018-11-08 02:57:38 / UTC 2018-11-07T09:01:32Z
    FromStats_BitRate           : 41
    FromStats_Duration          : 01:44:58.590000000
    FromStats_FrameCount        : 933
    FromStats_StreamSize        : 32415

    Menu
    00:00:00.000                : :00:00:00.000
    00:03:00.972                : :00:03:00.972
    00:10:44.769                : :00:10:44.727
    00:26:43.852                : :00:26:43.811
    00:32:21.481                : :00:32:21.481
    00:39:50.388                : :00:39:50.388
    00:49:39.143                : :00:49:39.143
    00:55:45.634                : :00:55:45.634
    01:12:25.716                : :01:12:25.716
    01:18:34.460                : :01:18:34.460
    01:28:14.539                : :01:28:14.539
    01:38:06.714                : :01:38:06.714
    01:44:02.778                : :01:44:02.778

  • Peso: 3.53 GiB

Sinopsis

Mission: Impossible (1996) 1080p Latino, Mega, Google Drive. Ethan Hunt es un superespía capaz de resolver cualquier arriesgada situación con la máxima elegancia. Forma parte de un competente equipo dirigido por el agente Jim Phelps, que ha vuelto a reunir a sus hombres para participar en una dificilísima misión: evitar la venta de un disco robado que contiene información secreta de vital importancia.

Ficha técnica

Video trailer de la película

Enlaces de descarga

Rip de Bluray

Descargar Mision: Imposible (1996) 1080p Latino




Aportes de DPeliculasHDmega la pass es:dpeliculashdmega.org Aportes de CinemaniaHD la pass es:cinemaniahdd.com
Guardado en : Acción , Aventura , HD 1080p , Suspense

Películas relacionadas

  • El Depredador (2018) Full 1080p Latino ( PLACEBO)

    2018
    El Depredador (2018) Full 1080p Latino ( PLACEBO)

    5.0 1h 41m 2018

    El Depredador  Full HD Latino Torrent Cuando el pequeño Rory (Jacob Tremblay) activa accidentalmente...

    Director: Shane Black

    Género: Acción

    Actores: Yvonne Strahovski

  • Blood Brother (2018) WEBDL 1080p Latino

    2018
    Blood Brother (2018) WEBDL 1080p Latino

    0.0 1h 30m 2018

    El hermano de sangre se desarrolla en las calles de una ciudad en decadencia, donde un convicto recientemente...

    Director: John Pogue

    Género: Acción

    Actores: Trey Songz

  • Duro de matar 4.0 (2007) Full 1080p Latino

    2007
    Duro de matar 4.0 (2007) Full 1080p Latino

    5.0 2h 8m 2007

    En Estados Unidos, la infraestructura de ordenadores que controla todo tipo de comunicaciones, transportes...

    Director: Len Wiseman

    Género: Acción

    Actores: Zeljko Ivanek

Comentarios 0