×

¿Problemas para descargar con Mozilla, EDGE? Deshabilita la opción "Abrir vinculos en una pestaña nueva" tal como lo muestra ésta imagen.

Mision de Rescate (2020) NF 1080p Latino

512 vistas

Información de Mision de Rescate (2020) NF 1080p Latino

Datos de la película

  • Calidad: WEBDL
  • Audio: Español Latino E-AC3 5.1 Netflix - Ingles E-AC3 5.1 Netflix
  • Subtitulos: Español Latino SRT- FORZADOS SRT
  • Resolución: 1920x1080
  • Formato: MKV
  • Codec: H.264
  • Encoder: CinemaniaHD
  • Mediainfo: Clic para Mostrar Datos Ver
  • Extraction (2020) NF 1080p Latino.mkv
    Format                      : Matroska
    Format version              : Version 4
    File size                   : 4.94 GiB
    Duration                    : 1 h 57 min
    Overall bit rate mode       : Variable
    Overall bit rate            : 6 018 kb/s
    Movie name                  : Extraction (2020) NF 1080p Latino
    Encoded date                : UTC 2020-04-24 15:39:08
    Writing application         : mkvmerge v42.0.0 ('Overtime') 64-bit
    Writing library             : libebml v1.3.10 + libmatroska v1.5.2

    Video
    ID                          : 1
    Format                      : AVC
    Format/Info                 : Advanced Video Codec
    Format profile              : Main@L4
    Format settings             : CABAC / 3 Ref Frames
    Format settings, CABAC      : Yes
    Format settings, ReFrames   : 3 frames
    Codec ID                    : V_MPEG4/ISO/AVC
    Duration                    : 1 h 57 min
    Bit rate mode               : Variable
    Bit rate                    : 4 870 kb/s
    Maximum bit rate            : 7 305 kb/s
    Width                       : 1 920 pixels
    Height                      : 1 080 pixels
    Display aspect ratio        : 16:9
    Frame rate mode             : Constant
    Frame rate                  : 24.000 FPS
    Color space                 : YUV
    Chroma subsampling          : 4:2:0
    Bit depth                   : 8 bits
    Scan type                   : Progressive
    Bits/(Pixel*Frame)          : 0.098
    Stream size                 : 3.94 GiB (80%)
    Title                       : CinemaniaHDD
    Writing library             : x264 core 148 r2717 0d2410d
    Encoding settings           : cabac=1 / ref=3 / deblock=1:0:0 / analyse=0x1:0x111 / me=umh / subme=10 / psy=1 / psy_rd=1.00:0.00 / mixed_ref=1 / me_range=24 / chroma_me=1 / trellis=2 / 8x8dct=0 / cqm=0 / deadzone=21,11 / fast_pskip=1 / chroma_qp_offset=-2 / threads=6 / lookahead_threads=1 / sliced_threads=0 / nr=0 / decimate=1 / interlaced=0 / bluray_compat=0 / stitchable=1 / constrained_intra=0 / bframes=2 / b_pyramid=0 / b_adapt=2 / b_bias=0 / direct=3 / weightb=1 / open_gop=0 / weightp=2 / keyint=250 / keyint_min=24 / scenecut=0 / intra_refresh=0 / rc_lookahead=48 / rc=2pass / mbtree=1 / bitrate=4870 / ratetol=1.0 / qcomp=0.50 / qpmin=6 / qpmax=51 / qpstep=4 / cplxblur=20.0 / qblur=0.5 / vbv_maxrate=7305 / vbv_bufsize=9740 / nal_hrd=vbr / filler=0 / ip_ratio=1.40 / aq=1:1.00
    Default                     : Yes
    Forced                      : No

    Audio #1
    ID                          : 2
    Format                      : AC-3
    Format/Info                 : Audio Coding 3
    Commercial name             : Dolby Digital
    Codec ID                    : A_AC3
    Duration                    : 1 h 57 min
    Bit rate mode               : Constant
    Bit rate                    : 448 kb/s
    Channel(s)                  : 6 channels
    Channel layout              : L R C LFE Ls Rs
    Sampling rate               : 48.0 kHz
    Frame rate                  : 31.250 FPS (1536 SPF)
    Bit depth                   : 16 bits
    Compression mode            : Lossy
    Stream size                 : 376 MiB (7%)
    Title                       : Español latino [CinemaniaHDD]
    Language                    : Spanish
    Service kind                : Complete Main
    Default                     : Yes
    Forced                      : No

    Audio #2
    ID                          : 3
    Format                      : E-AC-3 JOC
    Format/Info                 : Enhanced AC-3 with Joint Object Coding
    Commercial name             : Dolby Digital Plus with Dolby Atmos
    Codec ID                    : A_EAC3
    Duration                    : 1 h 57 min
    Bit rate mode               : Constant
    Bit rate                    : 768 kb/s
    Channel(s)                  : 6 channels
    Channel layout              : L R C LFE Ls Rs
    Sampling rate               : 48.0 kHz
    Frame rate                  : 31.250 FPS (1536 SPF)
    Compression mode            : Lossy
    Stream size                 : 645 MiB (13%)
    Title                       : Inglés [CinemaniaHDD]
    Language                    : English
    Service kind                : Complete Main
    Default                     : No
    Forced                      : No
    Complexity index            : 16
    Number of dynamic objects   : 15
    Bed channel count           : 1 channel
    Bed channel configuration   : LFE

    Text #1
    ID                          : 4
    Format                      : UTF-8
    Codec ID                    : S_TEXT/UTF8
    Codec ID/Info               : UTF-8 Plain Text
    Duration                    : 1 h 55 min
    Bit rate                    : 19 b/s
    Count of elements           : 697
    Stream size                 : 16.6 KiB (0%)
    Title                       : Español latino [CinemaniaHDD]
    Language                    : Spanish
    Default                     : No
    Forced                      : No

    Text #2
    ID                          : 5
    Format                      : UTF-8
    Codec ID                    : S_TEXT/UTF8
    Codec ID/Info               : UTF-8 Plain Text
    Duration                    : 1 h 45 min
    Bit rate                    : 6 b/s
    Count of elements           : 175
    Stream size                 : 4.68 KiB (0%)
    Title                       : Forzados [CinemaniaHDD]
    Language                    : Spanish
    Default                     : Yes
    Forced                      : No

  • Peso: .94 GiB

Sinopsis

Tyler Rake (Chris Hemsworth) es un mercenario que ofrece sus servicios en el mercado negro, y al que contratan para una peligrosa misión: rescatar al hijo secuestrado de un capo de la mafia india que se encuentra en prisión. En el turbio submundo de los traficantes de armas y los narcos, una misión que se preveía letal pasa a convertirse en un desafío prácticamente imposible que cambiará para siempre las vidas de Tyler y el chico.

Ficha técnica

Video trailer de la película

Enlaces de descarga

Rip de Bluray

Descargar Mision de Rescate (2020) NF 1080p Latino




Aportes de DPeliculasHDmega la pass es:dpeliculashdmega.org Aportes de CinemaniaHD la pass es:cinemaniahdd.com

Películas relacionadas

descargar Mision de Rescate (2020) NF 1080p Latino WEBDL 1080p gratis, Mision de Rescate (2020) NF 1080p Latino WEBDL mega 1 link, Mision de Rescate (2020) NF 1080p Latino WEBDL pelicula completa, descargar Mision de Rescate (2020) NF 1080p Latino WEBDL gratis en mega.

Mision de Rescate (2020) NF 1080p Latino pelicula full hd, Mision de Rescate (2020) NF 1080p Latino mega latino, Mision de Rescate (2020) NF 1080p Latino 4k latino, Mision de Rescate (2020) NF 1080p Latino pelicula completa, Mision de Rescate (2020) NF 1080p Latino descargar gratis, descargar Mision de Rescate (2020) NF 1080p Latino pelicula latino, Mision de Rescate (2020) NF 1080p Latino 1 link mega, Mision de Rescate (2020) NF 1080p Latino 1 link google drive, Mision de Rescate (2020) NF 1080p Latino hd 1080p latino.
Comentarios 0