Mis Huellas a Casa (2019) Remux 1080p Latino

565 vistas
1 estrella2 estrellas3 estrellas4 estrellas5 estrellas (4 votos, promedio: 5,00 de 5)
Cargando…

Información de Mis Huellas a Casa (2019) Remux 1080p Latino

Datos de la película

  • Calidad: Full 1080p
  • Audio: Español Latino AC3 5.1 BLURAY - Ingles DTS 5.1 BLURAY
  • Subtitulos: Español Latino PGS - Ingles PGS
  • Resolución: 1920x1080p
  • Formato: MKV
  • Codec: H.264
  • Encoder: CinefiloCool | CinemaniaHD
  • Mediainfo: Clic para Mostrar Datos Ver
  • Mis Huellas A Casa (2018) Remux 1080p Latino.mkv
    Format                      : Matroska
    Format version              : Version 4
    File size                   : 18.5 GiB
    Duration                    : 1 h 35 min
    Overall bit rate mode       : Variable
    Overall bit rate            : 27.7 Mb/s
    Movie name                  : CinemaniaHDD.Net
    Encoded date                : UTC 2019-04-05 06:47:26
    Writing application         : mkvmerge v30.1.0 ('Forever And More') 64-bit
    Writing library             : libebml v1.3.6 + libmatroska v1.4.9

    Video
    ID                          : 1
    Format                      : AVC
    Format/Info                 : Advanced Video Codec
    Format profile              : [email protected]
    Format settings             : CABAC / 2 Ref Frames
    Format settings, CABAC      : Yes
    Format settings, ReFrames   : 2 frames
    Format settings, GOP        : M=1, N=10
    Codec ID                    : V_MPEG4/ISO/AVC
    Duration                    : 1 h 35 min
    Bit rate mode               : Variable
    Bit rate                    : 24.8 Mb/s
    Width                       : 1 920 pixels
    Height                      : 1 080 pixels
    Display aspect ratio        : 16:9
    Frame rate mode             : Constant
    Frame rate                  : 23.976 (24000/1001) FPS
    Color space                 : YUV
    Chroma subsampling          : 4:2:0
    Bit depth                   : 8 bits
    Scan type                   : Progressive
    Bits/(Pixel*Frame)          : 0.500
    Stream size                 : 16.6 GiB (90%)
    Title                       : Full HD1080p [Remux]
    Default                     : Yes
    Forced                      : No

    Audio #1
    ID                          : 2
    Format                      : AC-3
    Format/Info                 : Audio Coding 3
    Commercial name             : Dolby Digital
    Codec ID                    : A_AC3
    Duration                    : 1 h 35 min
    Bit rate mode               : Constant
    Bit rate                    : 640 kb/s
    Channel(s)                  : 6 channels
    Channel layout              : L R C LFE Ls Rs
    Sampling rate               : 48.0 kHz
    Frame rate                  : 31.250 FPS (1536 SPF)
    Bit depth                   : 16 bits
    Compression mode            : Lossy
    Delay relative to video     : -7 ms
    Stream size                 : 439 MiB (2%)
    Title                       : AC3_5.1_Bluray_Esp
    Language                    : Spanish
    Service kind                : Complete Main
    Default                     : Yes
    Forced                      : Yes

    Audio #2
    ID                          : 3
    Format                      : DTS XLL
    Format/Info                 : Digital Theater Systems
    Commercial name             : DTS-HD Master Audio
    Codec ID                    : A_DTS
    Duration                    : 1 h 35 min
    Bit rate mode               : Variable
    Bit rate                    : 2 160 kb/s
    Channel(s)                  : 6 channels
    Channel layout              : C L R Ls Rs LFE
    Sampling rate               : 48.0 kHz
    Frame rate                  : 93.750 FPS (512 SPF)
    Bit depth                   : 16 bits
    Compression mode            : Lossless
    Stream size                 : 1.45 GiB (8%)
    Title                       : DTS-HD_5.1_Bluray_Eng
    Language                    : English
    Default                     : No
    Forced                      : No

    Text #1
    ID                          : 4
    Format                      : PGS
    Muxing mode                 : zlib
    Codec ID                    : S_HDMV/PGS
    Codec ID/Info               : Picture based subtitle format used on BDs/HD-DVDs
    Duration                    : 1 h 34 min
    Bit rate                    : 26.7 kb/s
    Count of elements           : 2098
    Stream size                 : 18.0 MiB (0%)
    Title                       : Sub_Esp [PGS]
    Language                    : Spanish
    Default                     : No
    Forced                      : No

    Text #2
    ID                          : 5
    Format                      : PGS
    Muxing mode                 : zlib
    Codec ID                    : S_HDMV/PGS
    Codec ID/Info               : Picture based subtitle format used on BDs/HD-DVDs
    Duration                    : 1 h 29 min
    Bit rate                    : 39.3 kb/s
    Count of elements           : 2842
    Stream size                 : 25.3 MiB (0%)
    Title                       : Sub_Eng [PGS]
    Language                    : English
    Default                     : No
    Forced                      : No

    Menu
    00:00:00.000                : en:Capítulo 01
    00:06:45.113                : en:Capítulo 02
    00:11:38.114                : en:Capítulo 03
    00:18:29.358                : en:Capítulo 04
    00:21:30.956                : en:Capítulo 05
    00:27:09.419                : en:Capítulo 06
    00:33:17.871                : en:Capítulo 07
    00:39:45.133                : en:Capítulo 08
    00:48:28.823                : en:Capítulo 09
    00:53:55.774                : en:Capítulo 10
    01:01:23.513                : en:Capítulo 11
    01:06:28.193                : en:Capítulo 12
    01:10:10.289                : en:Capítulo 13
    01:15:09.505                : en:Capítulo 14
    01:17:34.608                : en:Capítulo 15
    01:24:09.962                : en:Capítulo 16

  • Peso: 18.5 GiB

Sinopsis

Descargar Mis Huellas a Casa (2019) Remux 1080p Latino, Mega, Google Drive. Narra la aventura de Bella, una perra que se embarca en un viaje de 400 millas para volver a su casa después de ser separada de su dueño

 

PASS: cinemanaihdd.com

Ficha técnica

Video trailer de la película

Enlaces de descarga

Rip de Bluray

Descargar Mis Huellas a Casa (2019) Remux 1080p Latino




Aportes de DPeliculasHDmega la pass es:dpeliculashdmega.org Aportes de CinemaniaHD la pass es:cinemaniahdd.com
Guardado en : Aventura , Drama , Familia , Remux

Películas relacionadas

Comentarios 2
  • Aiton - 05 abril, 2019

    Cambiaron la clave? que buena

    • cine filo - 06 abril, 2019

      no, es y sera la de siempre, lo que paso esta vez fue un error de dedo del que me di cuenta cuando ya estaba todo subido, sorry por esta :-/