Espejos Siniestros (2008) REMUX 1080p Latino

51 vistas
1 estrella2 estrellas3 estrellas4 estrellas5 estrellas (1 votos, promedio: 5,00 de 5)
Cargando...

Información de Espejos Siniestros (2008) REMUX 1080p Latino

Datos de la película

  • Calidad: Full 1080p
  • Audio: Español Latino AC3 5.1 BLURAY - Ingles DTS 5.1 BLURAY
  • Subtitulos: Español Latino PGS - Ingles PGS
  • Resolución: 1920x1080p
  • Formato: MKV
  • Codec: H.264
  • Encoder: CinefiloCool
  • Mediainfo: Clic para Mostrar Datos Ver
  • Espejos Siniestros (2008) REMUX 1080p Latino-CMHDD.mkv
    Format                      : Matroska
    Format version              : Version 4
    File size                   : 20.4 GiB
    Duration                    : 1 h 51 min
    Overall bit rate mode       : Variable
    Overall bit rate            : 26.3 Mb/s
    Movie name                  : Mirrors (2008) CinemaniaHDD.Net
    Encoded date                : UTC 2020-10-25 19:50:21
    Writing application         : mkvmerge v51.0.0 ('I Wish') 64-bit
    Writing library             : libebml v1.4.0 + libmatroska v1.6.2
    Attachments                 : CINEMANIAHD.png

    Video
    ID                          : 1
    Format                      : AVC
    Format/Info                 : Advanced Video Codec
    Format profile              : High@L4.1
    Format settings             : CABAC / 4 Ref Frames
    Format settings, CABAC      : Yes
    Format settings, Reference  : 4 frames
    Codec ID                    : V_MPEG4/ISO/AVC
    Duration                    : 1 h 51 min
    Bit rate mode               : Variable
    Bit rate                    : 22.0 Mb/s
    Maximum bit rate            : 32.7 Mb/s
    Width                       : 1 920 pixels
    Height                      : 1 080 pixels
    Display aspect ratio        : 16:9
    Frame rate mode             : Constant
    Frame rate                  : 23.976 (24000/1001) FPS
    Color space                 : YUV
    Chroma subsampling          : 4:2:0
    Bit depth                   : 8 bits
    Scan type                   : Progressive
    Bits/(Pixel*Frame)          : 0.442
    Stream size                 : 17.1 GiB (84%)
    Title                       : REMUX 1080p [CinemaniaHDD]
    Language                    : English
    Default                     : Yes
    Forced                      : No
    Color range                 : Limited
    Color primaries             : BT.709
    Transfer characteristics    : BT.709
    Matrix coefficients         : BT.709

    Audio #1
    ID                          : 2
    Format                      : AC-3
    Format/Info                 : Audio Coding 3
    Commercial name             : Dolby Digital
    Codec ID                    : A_AC3
    Duration                    : 1 h 51 min
    Bit rate mode               : Constant
    Bit rate                    : 448 kb/s
    Channel(s)                  : 6 channels
    Channel layout              : L R C LFE Ls Rs
    Sampling rate               : 48.0 kHz
    Frame rate                  : 31.250 FPS (1536 SPF)
    Compression mode            : Lossy
    Stream size                 : 356 MiB (2%)
    Title                       : Español Latino [CinemaniaHDD]
    Language                    : Spanish
    Service kind                : Complete Main
    Default                     : Yes
    Forced                      : No

    Audio #2
    ID                          : 3
    Format                      : DTS XLL
    Format/Info                 : Digital Theater Systems
    Commercial name             : DTS-HD Master Audio
    Codec ID                    : A_DTS
    Duration                    : 1 h 51 min
    Bit rate mode               : Variable
    Bit rate                    : 3 796 kb/s
    Channel(s)                  : 6 channels
    Channel layout              : C L R Ls Rs LFE
    Sampling rate               : 48.0 kHz
    Frame rate                  : 93.750 FPS (512 SPF)
    Bit depth                   : 24 bits
    Compression mode            : Lossless
    Stream size                 : 2.95 GiB (14%)
    Title                       : Ingles [CinemaniaHDD]
    Language                    : English
    Default                     : No
    Forced                      : No

    Text #1
    ID                          : 4
    Format                      : PGS
    Muxing mode                 : zlib
    Codec ID                    : S_HDMV/PGS
    Codec ID/Info               : Picture based subtitle format used on BDs/HD-DVDs
    Duration                    : 1 h 44 min
    Bit rate                    : 1 451 b/s
    Count of elements           : 54
    Stream size                 : 1.08 MiB (0%)
    Title                       : Forzados-PGS [CinemaniaHDD]
    Language                    : Spanish
    Default                     : Yes
    Forced                      : No

    Text #2
    ID                          : 5
    Format                      : PGS
    Muxing mode                 : zlib
    Codec ID                    : S_HDMV/PGS
    Codec ID/Info               : Picture based subtitle format used on BDs/HD-DVDs
    Duration                    : 1 h 44 min
    Bit rate                    : 34.7 kb/s
    Count of elements           : 1596
    Stream size                 : 25.9 MiB (0%)
    Title                       : Español-PGS [CinemaniaHDD]
    Language                    : Spanish
    Default                     : No
    Forced                      : No

    Text #3
    ID                          : 6
    Format                      : PGS
    Muxing mode                 : zlib
    Codec ID                    : S_HDMV/PGS
    Codec ID/Info               : Picture based subtitle format used on BDs/HD-DVDs
    Duration                    : 1 h 45 min
    Bit rate                    : 41.3 kb/s
    Count of elements           : 1869
    Stream size                 : 31.3 MiB (0%)
    Title                       : Ingles-PGS [CinemaniaHDD]
    Language                    : English
    Default                     : No
    Forced                      : No

    Text #4
    ID                          : 7
    Format                      : UTF-8
    Codec ID                    : S_TEXT/UTF8
    Codec ID/Info               : UTF-8 Plain Text
    Duration                    : 1 h 47 min
    Bit rate                    : 0 b/s
    Count of elements           : 14
    Stream size                 : 549 Bytes (0%)
    Title                       : Forzados-SRT [CinemaniaHDD]
    Language                    : Spanish
    Default                     : No
    Forced                      : No

    Text #5
    ID                          : 8
    Format                      : UTF-8
    Codec ID                    : S_TEXT/UTF8
    Codec ID/Info               : UTF-8 Plain Text
    Duration                    : 1 h 49 min
    Bit rate                    : 32 b/s
    Count of elements           : 819
    Stream size                 : 26.2 KiB (0%)
    Title                       : Español-SRT [CinemaniaHDD]
    Language                    : Spanish
    Default                     : No
    Forced                      : No

    Menu
    00:00:00.000                : en:Chapter 01
    00:03:49.646                : en:Chapter 02
    00:05:39.255                : en:Chapter 03
    00:07:20.398                : en:Chapter 04
    00:11:14.674                : en:Chapter 05
    00:15:32.431                : en:Chapter 06
    00:21:38.630                : en:Chapter 07
    00:23:28.615                : en:Chapter 08
    00:33:25.878                : en:Chapter 09
    00:36:20.428                : en:Chapter 10
    00:39:18.439                : en:Chapter 11
    00:44:26.789                : en:Chapter 12
    00:50:50.172                : en:Chapter 13
    00:53:10.604                : en:Chapter 14
    00:56:22.587                : en:Chapter 15
    01:01:44.784                : en:Chapter 16
    01:05:53.616                : en:Chapter 17
    01:08:09.043                : en:Chapter 18
    01:10:21.508                : en:Chapter 19
    01:13:57.141                : en:Chapter 20
    01:19:18.628                : en:Chapter 21
    01:24:17.093                : en:Chapter 22
    01:29:09.719                : en:Chapter 23
    01:32:03.184                : en:Chapter 24
    01:35:48.868                : en:Chapter 25
    01:38:06.797                : en:Chapter 26
    01:42:32.896                : en:Chapter 27
    01:47:03.917                : en:Chapter 28

  • Peso: 20.4 GiB

Sinopsis

Descargar Espejos Siniestros (2008) REMUX 1080p Latino. Ben Carson (Kiefer Sutherland) ha tenido días mejores. Ha pasado casi un año desde que el inestable detective fuera suspendido de su trabajo en el Departamento de Policía de Nueva York tras haber disparado fatalmente a otro policía que trabajaba de incógnito, un accidente que no sólo le costó su empleo, sino que le llevó al alcoholismo y desató la ira que le alejó de su esposa e hijos, teniendo que pernoctar ahora en el sofá de su hermana, en Queens. Mientras Carson patrulla por los espeluznantes y chamuscados restos de los almacenes Mayflower, advierte algo siniestro en los fastuosos espejos que adornan sus paredes. En su inmenso cristal se reflejan unas imágenes terroríficas que inquietan profundamente a Carson.

Ficha técnica

Video trailer de la película

Enlaces de descarga

Rip de Bluray

Descargar Espejos Siniestros (2008) REMUX 1080p Latino




Aportes de DPeliculasHDmega la pass es:dpeliculashdmega.org Aportes de CinemaniaHD la pass es:cinemaniahdd.com
Guardado en : Drama , Misterio , Remux , Suspenso , Terror

Películas relacionadas

Comentarios 1
  • ocpgaiden - 05 noviembre, 2020

    Gracias por espejos siniestros remux, saludos