Espejos Siniestros (2008) OPEN MATTE Webrip 1080p Latino

188 vistas
1 estrella2 estrellas3 estrellas4 estrellas5 estrellas (1 votos, promedio: 5,00 de 5)
Cargando...

Información de Espejos Siniestros (2008) OPEN MATTE Webrip 1080p Latino

Datos de la película

  • Calidad: WEBDL
  • Audio: Se especifica abajo de la Sinopsis
  • Subtitulos: Español Latino SRT - Ingles SRT
  • Resolución: 1920x1080p
  • Formato: MKV
  • Codec: H.264
  • Encoder: CinefiloCool
  • Mediainfo: Clic para Mostrar Datos Ver
  • Espejos Siniestros (2008) OPEN MATTE Web 1080p Latino-CMHDD.mkv
    Format                      : Matroska
    Format version              : Version 4
    File size                   : 4.50 GiB
    Duration                    : 1 h 51 min
    Overall bit rate            : 5 787 kb/s
    Movie name                  : Mirrors (2008) CinemaniaHDD.Net
    Encoded date                : UTC 2020-10-25 20:20:14
    Writing application         : mkvmerge v51.0.0 ('I Wish') 64-bit
    Writing library             : libebml v1.4.0 + libmatroska v1.6.2
    Attachments                 : CINEMANIAHD.png

    Video
    ID                          : 1
    Format                      : AVC
    Format/Info                 : Advanced Video Codec
    Format profile              : High@L4
    Format settings             : CABAC / 4 Ref Frames
    Format settings, CABAC      : Yes
    Format settings, Reference  : 4 frames
    Codec ID                    : V_MPEG4/ISO/AVC
    Duration                    : 1 h 51 min
    Bit rate                    : 5 120 kb/s
    Width                       : 1 920 pixels
    Height                      : 1 080 pixels
    Display aspect ratio        : 16:9
    Frame rate mode             : Constant
    Frame rate                  : 23.976 (24000/1001) FPS
    Color space                 : YUV
    Chroma subsampling          : 4:2:0
    Bit depth                   : 8 bits
    Scan type                   : Progressive
    Bits/(Pixel*Frame)          : 0.103
    Stream size                 : 3.80 GiB (84%)
    Title                       : Web Open Matte [CinemaniaHDD]
    Writing library             : x264 core 142
    Encoding settings           : cabac=1 / ref=3 / deblock=1:0:0 / analyse=0x3:0x113 / me=hex / subme=7 / psy=1 / psy_rd=1.00:0.00 / mixed_ref=1 / me_range=16 / chroma_me=1 / trellis=1 / 8x8dct=1 / cqm=0 / deadzone=21,11 / fast_pskip=1 / chroma_qp_offset=-2 / threads=108 / lookahead_threads=8 / sliced_threads=0 / nr=0 / decimate=1 / interlaced=0 / bluray_compat=0 / constrained_intra=0 / bframes=6 / b_pyramid=2 / b_adapt=1 / b_bias=0 / direct=1 / weightb=1 / open_gop=0 / weightp=2 / keyint=50 / keyint_min=26 / scenecut=0 / intra_refresh=0 / rc_lookahead=40 / rc=2pass / mbtree=1 / bitrate=5120 / ratetol=1.0 / qcomp=0.60 / qpmin=0 / qpmax=69 / qpstep=4 / cplxblur=20.0 / qblur=0.5 / vbv_maxrate=7680 / vbv_bufsize=20480 / nal_hrd=none / filler=0 / ip_ratio=1.40 / aq=1:1.00
    Default                     : Yes
    Forced                      : Yes

    Audio #1
    ID                          : 2
    Format                      : AC-3
    Format/Info                 : Audio Coding 3
    Commercial name             : Dolby Digital
    Codec ID                    : A_AC3
    Duration                    : 1 h 51 min
    Bit rate mode               : Constant
    Bit rate                    : 448 kb/s
    Channel(s)                  : 6 channels
    Channel layout              : L R C LFE Ls Rs
    Sampling rate               : 48.0 kHz
    Frame rate                  : 31.250 FPS (1536 SPF)
    Compression mode            : Lossy
    Delay relative to video     : 22 ms
    Stream size                 : 356 MiB (8%)
    Title                       : Español Latino [CinemaniaHDD]
    Language                    : Spanish
    Service kind                : Complete Main
    Default                     : Yes
    Forced                      : Yes

    Audio #2
    ID                          : 3
    Format                      : AC-3
    Format/Info                 : Audio Coding 3
    Commercial name             : Dolby Digital
    Codec ID                    : A_AC3
    Duration                    : 1 h 51 min
    Bit rate mode               : Constant
    Bit rate                    : 448 kb/s
    Channel(s)                  : 6 channels
    Channel layout              : L R C LFE Ls Rs
    Sampling rate               : 48.0 kHz
    Frame rate                  : 31.250 FPS (1536 SPF)
    Compression mode            : Lossy
    Stream size                 : 356 MiB (8%)
    Title                       : Ingles [CinemaniaHDD]
    Language                    : English
    Service kind                : Complete Main
    Default                     : No
    Forced                      : No

    Text #1
    ID                          : 4
    Format                      : UTF-8
    Codec ID                    : S_TEXT/UTF8
    Codec ID/Info               : UTF-8 Plain Text
    Duration                    : 1 h 47 min
    Bit rate                    : 0 b/s
    Count of elements           : 14
    Stream size                 : 549 Bytes (0%)
    Title                       : Forzados-SRT [CinemaniaHDD]
    Language                    : Spanish
    Default                     : Yes
    Forced                      : Yes

    Text #2
    ID                          : 5
    Format                      : UTF-8
    Codec ID                    : S_TEXT/UTF8
    Codec ID/Info               : UTF-8 Plain Text
    Duration                    : 1 h 49 min
    Bit rate                    : 32 b/s
    Count of elements           : 819
    Stream size                 : 26.2 KiB (0%)
    Title                       : Español-SRT [CinemaniaHDD]
    Language                    : Spanish
    Default                     : No
    Forced                      : No

    Text #3
    ID                          : 6
    Format                      : UTF-8
    Codec ID                    : S_TEXT/UTF8
    Codec ID/Info               : UTF-8 Plain Text
    Duration                    : 1 h 41 min
    Bit rate                    : 40 b/s
    Count of elements           : 806
    Stream size                 : 29.7 KiB (0%)
    Title                       : Ingles-SRT [CinemaniaHDD]
    Language                    : English
    Default                     : No
    Forced                      : No

    Menu
    00:00:00.000                : en:Chapter 01
    00:03:47.876                : en:Chapter 02
    00:05:37.485                : en:Chapter 03
    00:07:18.628                : en:Chapter 04
    00:11:12.904                : en:Chapter 05
    00:15:30.661                : en:Chapter 06
    00:21:36.860                : en:Chapter 07
    00:23:26.845                : en:Chapter 08
    00:33:24.108                : en:Chapter 09
    00:36:18.658                : en:Chapter 10
    00:39:16.669                : en:Chapter 11
    00:44:25.019                : en:Chapter 12
    00:50:48.402                : en:Chapter 13
    00:53:08.834                : en:Chapter 14
    00:56:20.817                : en:Chapter 15
    01:01:43.014                : en:Chapter 16
    01:05:51.846                : en:Chapter 17
    01:08:07.273                : en:Chapter 18
    01:10:19.738                : en:Chapter 19
    01:13:55.371                : en:Chapter 20
    01:19:16.858                : en:Chapter 21
    01:24:15.323                : en:Chapter 22
    01:29:07.949                : en:Chapter 23
    01:32:01.414                : en:Chapter 24
    01:35:47.098                : en:Chapter 25
    01:38:05.027                : en:Chapter 26
    01:42:31.126                : en:Chapter 27
    01:47:02.147                : en:Chapter 28

  • Peso: 4.50 GiB

Sinopsis

Descargar Espejos Siniestros (2008) OPEN MATTE Webrip 1080p Latino. Ben Carson (Kiefer Sutherland) ha tenido días mejores. Ha pasado casi un año desde que el inestable detective fuera suspendido de su trabajo en el Departamento de Policía de Nueva York tras haber disparado fatalmente a otro policía que trabajaba de incógnito, un accidente que no sólo le costó su empleo, sino que le llevó al alcoholismo y desató la ira que le alejó de su esposa e hijos, teniendo que pernoctar ahora en el sofá de su hermana, en Queens. Mientras Carson patrulla por los espeluznantes y chamuscados restos de los almacenes Mayflower, advierte algo siniestro en los fastuosos espejos que adornan sus paredes. En su inmenso cristal se reflejan unas imágenes terroríficas que inquietan profundamente a Carson.

Audio Español Latino AC3 5.1 Bluray – Ingles AC3 5.1 Web

Ficha técnica

Video trailer de la película

Enlaces de descarga

Rip de Bluray

Descargar Espejos Siniestros (2008) OPEN MATTE Webrip 1080p Latino




Aportes de DPeliculasHDmega la pass es:dpeliculashdmega.org Aportes de CinemaniaHD la pass es:cinemaniahdd.com
Guardado en : Drama , Misterio , OPEN MATTE , Suspenso , Terror

Películas relacionadas

Espejos Siniestros (2008) OPEN MATTE Webrip 1080p Latino pelicula full hd, Espejos Siniestros (2008) OPEN MATTE Webrip 1080p Latino mega latino, Espejos Siniestros (2008) OPEN MATTE Webrip 1080p Latino 4k latino, Espejos Siniestros (2008) OPEN MATTE Webrip 1080p Latino pelicula completa, Espejos Siniestros (2008) OPEN MATTE Webrip 1080p Latino descargar gratis, descargar Espejos Siniestros (2008) OPEN MATTE Webrip 1080p Latino pelicula latino, Espejos Siniestros (2008) OPEN MATTE Webrip 1080p Latino 1 link mega, Espejos Siniestros (2008) OPEN MATTE Webrip 1080p Latino 1 link google drive, Espejos Siniestros (2008) OPEN MATTE Webrip 1080p Latino hd 1080p latino.
Comentarios 0