×

¿Problemas para descargar con Mozilla, EDGE? Deshabilita la opción "Abrir vinculos en una pestaña nueva" tal como lo muestra ésta imagen.

Mirreyes vs. Godínez 2: El retiro (2022) Vix+ WEB-DL 1080p Latino

506 vistas

Información de Mirreyes vs. Godínez 2: El retiro (2022) Vix+ WEB-DL 1080p Latino

Datos de la película

  • Calidad:
  • Audio: Español Latino AC3 2.0
  • Subtitulos: Español Latino SRT
  • Resolución: 1920x1080
  • Formato: MKV
  • Codec: H.264
  • Encoder: cinemaniahdd
  • Mediainfo: Clic para Mostrar Datos Ver
  • Mirreyes vs godinez 2 El retiro (2022) Vix+ WEB-DL 1080p Latino [CNMNHDD].mkv
    Format                      : Matroska
    Format version              : Version 4
    File size                   : 4.86 GiB
    Duration                    : 1 h 37 min
    Overall bit rate            : 7 138 kb/s
    Movie name                  : Mirreyes vs godinez 2 El retiro (2022) [1080p] - CinemaniaHDD.Net
    Encoded date                : UTC 2022-07-24 18:12:50
    Writing application         : mkvmerge v56.1.0 ('My Friend') 64-bit
    Writing library             : libebml v1.4.2 + libmatroska v1.6.4

    Video
    ID                          : 1
    Format                      : AVC
    Format/Info                 : Advanced Video Codec
    Format profile              : High@L4
    Format settings             : CABAC / 4 Ref Frames
    Format settings, CABAC      : Yes
    Format settings, Reference  : 4 frames
    Codec ID                    : V_MPEG4/ISO/AVC
    Duration                    : 1 h 37 min
    Bit rate                    : 6 751 kb/s
    Width                       : 1 920 pixels
    Height                      : 1 080 pixels
    Display aspect ratio        : 16:9
    Frame rate mode             : Constant
    Frame rate                  : 24.000 FPS
    Color space                 : YUV
    Chroma subsampling          : 4:2:0
    Bit depth                   : 8 bits
    Scan type                   : Progressive
    Bits/(Pixel*Frame)          : 0.136
    Stream size                 : 4.60 GiB (95%)
    Title                       : CinemaniaHDD
    Default                     : Yes
    Forced                      : No
    Color range                 : Limited
    Color primaries             : BT.709
    Transfer characteristics    : BT.709
    Matrix coefficients         : BT.709

    Audio
    ID                          : 2
    Format                      : AC-3
    Format/Info                 : Audio Coding 3
    Commercial name             : Dolby Digital
    Codec ID                    : A_AC3
    Duration                    : 1 h 37 min
    Bit rate mode               : Constant
    Bit rate                    : 384 kb/s
    Channel(s)                  : 2 channels
    Channel layout              : L R
    Sampling rate               : 48.0 kHz
    Frame rate                  : 31.250 FPS (1536 SPF)
    Compression mode            : Lossy
    Stream size                 : 268 MiB (5%)
    Title                       : Español latino [CinemaniaHDD]
    Language                    : Spanish
    Service kind                : Complete Main
    Default                     : Yes
    Forced                      : No

    Text
    ID                          : 3
    Format                      : UTF-8
    Codec ID                    : S_TEXT/UTF8
    Codec ID/Info               : UTF-8 Plain Text
    Duration                    : 1 h 36 min
    Bit rate                    : 106 b/s
    Count of elements           : 2399
    Stream size                 : 75.7 KiB (0%)
    Title                       : Español latino [CinemaniaHDD]
    Language                    : Spanish
    Default                     : No
    Forced                      : No

     

  • Peso: 4.86 GiB

Sinopsis

A causa de una tentadora oferta para la empresa Kuri, se enfrentarán los Mirreyes y Godínez una vez más. Para resolver sus problemas, viajarán a un retiro corporativo en donde tratarán de volver a unirse como equipo.

Ficha técnica

  • Titulo original: Mirreyes vs. Godínez 2: El retiro
  • Fecha de lanzamiento: 21-07-2022 (Mexico)
  • Director: Chava Cartas
  • Género: Comedia

Video trailer de la película

Enlaces de descarga

Rip de Bluray

Descargar Mirreyes vs. Godínez 2: El retiro (2022) Vix+ WEB-DL 1080p Latino




Aportes de DPeliculasHDmega la pass es:dpeliculashdmega.org Aportes de CinemaniaHD la pass es:cinemaniahdd.com
Guardado en : Comedia

Películas relacionadas

descargar Mirreyes vs. Godínez 2: El retiro (2022) Vix+ WEB-DL 1080p Latino 1080p gratis, Mirreyes vs. Godínez 2: El retiro (2022) Vix+ WEB-DL 1080p Latino mega 1 link, Mirreyes vs. Godínez 2: El retiro (2022) Vix+ WEB-DL 1080p Latino pelicula completa, descargar Mirreyes vs. Godínez 2: El retiro (2022) Vix+ WEB-DL 1080p Latino gratis en mega.

Mirreyes vs. Godínez 2: El retiro (2022) Vix+ WEB-DL 1080p Latino pelicula full hd, Mirreyes vs. Godínez 2: El retiro (2022) Vix+ WEB-DL 1080p Latino mega latino, Mirreyes vs. Godínez 2: El retiro (2022) Vix+ WEB-DL 1080p Latino 4k latino, Mirreyes vs. Godínez 2: El retiro (2022) Vix+ WEB-DL 1080p Latino pelicula completa, Mirreyes vs. Godínez 2: El retiro (2022) Vix+ WEB-DL 1080p Latino descargar gratis, descargar Mirreyes vs. Godínez 2: El retiro (2022) Vix+ WEB-DL 1080p Latino pelicula latino, Mirreyes vs. Godínez 2: El retiro (2022) Vix+ WEB-DL 1080p Latino 1 link mega, Mirreyes vs. Godínez 2: El retiro (2022) Vix+ WEB-DL 1080p Latino 1 link google drive, Mirreyes vs. Godínez 2: El retiro (2022) Vix+ WEB-DL 1080p Latino hd 1080p latino.
Comentarios 0