×

¿Problemas para descargar con Mozilla, EDGE? Deshabilita la opción "Abrir vinculos en una pestaña nueva" tal como lo muestra ésta imagen.

Miracles From Heaven (2016) REMUX 1080p Latino – CMHDD

278 vistas

Información de Miracles From Heaven (2016) REMUX 1080p Latino – CMHDD

Datos de la película

  • Calidad: Full 1080p
  • Audio: Español Latino AC3 5.1 BLURAY - Ingles DTS 5.1 BLURAY
  • Subtitulos: Español Latino PGS
  • Resolución: 1920x1080p
  • Formato: MKV
  • Codec: H.264
  • Encoder: Dracarys
  • Mediainfo: Clic para Mostrar Datos Ver
  • Format                      : Matroska
    Format version              : Version 4
    File size                   : 21.3 GiB
    Duration                    : 1 h 49 min
    Overall bit rate mode       : Variable
    Overall bit rate            : 28.0 Mb/s
    Movie name                  : Miracles From Heaven (2016) REMUX 1080p Latino - CMHDD
    Encoded date                : UTC 2023-08-23 23:15:54
    Writing application         : mkvmerge v47.0.0 ('Black Flag') 64-bit
    Writing library             : libebml v1.3.10 + libmatroska v1.5.2
    Cover                       : Yes
    Attachments                 : cover.jpg

    Video
    ID                          : 1
    ID in the original source m : 4113 (0x1011)
    Format                      : AVC
    Format/Info                 : Advanced Video Codec
    Format profile              : High@L4.1
    Format settings             : CABAC / 2 Ref Frames
    Format settings, CABAC      : Yes
    Format settings, Reference  : 2 frames
    Format settings, GOP        : M=1, N=10
    Codec ID                    : V_MPEG4/ISO/AVC
    Duration                    : 1 h 49 min
    Bit rate mode               : Variable
    Bit rate                    : 24.6 Mb/s
    Width                       : 1 920 pixels
    Height                      : 1 080 pixels
    Display aspect ratio        : 16:9
    Frame rate mode             : Constant
    Frame rate                  : 23.976 (24000/1001) FPS
    Color space                 : YUV
    Chroma subsampling          : 4:2:0
    Bit depth                   : 8 bits
    Scan type                   : Progressive
    Bits/(Pixel*Frame)          : 0.495
    Stream size                 : 18.7 GiB (88%)
    Default                     : Yes
    Forced                      : No
    Original source medium      : Blu-ray

    Audio #1
    ID                          : 2
    ID in the original source m : 4352 (0x1100)
    Format                      : DTS XLL
    Format/Info                 : Digital Theater Systems
    Commercial name             : DTS-HD Master Audio
    Codec ID                    : A_DTS
    Duration                    : 1 h 49 min
    Bit rate mode               : Variable
    Bit rate                    : 2 102 kb/s
    Channel(s)                  : 6 channels
    Channel layout              : C L R Ls Rs LFE
    Sampling rate               : 48.0 kHz
    Frame rate                  : 93.750 FPS (512 SPF)
    Bit depth                   : 16 bits
    Compression mode            : Lossless
    Stream size                 : 1.60 GiB (8%)
    Language                    : English
    Default                     : No
    Forced                      : No
    Original source medium      : Blu-ray

    Audio #2
    ID                          : 3
    ID in the original source m : 4353 (0x1101)
    Format                      : AC-3
    Format/Info                 : Audio Coding 3
    Commercial name             : Dolby Digital
    Codec ID                    : A_AC3
    Duration                    : 1 h 49 min
    Bit rate mode               : Constant
    Bit rate                    : 640 kb/s
    Channel(s)                  : 6 channels
    Channel layout              : L R C LFE Ls Rs
    Sampling rate               : 48.0 kHz
    Frame rate                  : 31.250 FPS (1536 SPF)
    Compression mode            : Lossy
    Delay relative to video     : 24 ms
    Stream size                 : 499 MiB (2%)
    Language                    : English
    Service kind                : Complete Main
    Default                     : No
    Forced                      : No
    Original source medium      : Blu-ray

    Audio #3
    ID                          : 4
    ID in the original source m : 4356 (0x1104)
    Format                      : AC-3
    Format/Info                 : Audio Coding 3
    Commercial name             : Dolby Digital
    Codec ID                    : A_AC3
    Duration                    : 1 h 49 min
    Bit rate mode               : Constant
    Bit rate                    : 640 kb/s
    Channel(s)                  : 6 channels
    Channel layout              : L R C LFE Ls Rs
    Sampling rate               : 48.0 kHz
    Frame rate                  : 31.250 FPS (1536 SPF)
    Compression mode            : Lossy
    Delay relative to video     : 24 ms
    Stream size                 : 499 MiB (2%)
    Language                    : Spanish
    Service kind                : Complete Main
    Default                     : Yes
    Forced                      : No
    Original source medium      : Blu-ray

    Text
    ID                          : 5
    ID in the original source m : 4616 (0x1208)
    Format                      : PGS
    Muxing mode                 : zlib
    Codec ID                    : S_HDMV/PGS
    Codec ID/Info               : Picture based subtitle format used on BDs/HD-DVDs
    Duration                    : 1 h 43 min
    Bit rate                    : 40.6 kb/s
    Frame rate                  : 0.475 FPS
    Count of elements           : 2955
    Stream size                 : 30.1 MiB (0%)
    Language                    : Spanish
    Default                     : No
    Forced                      : No
    Original source medium      : Blu-ray

    Menu
    00:00:00.000                : en:Capítulo 01
    00:06:10.161                : en:Capítulo 02
    00:12:48.100                : en:Capítulo 03
    00:19:17.030                : en:Capítulo 04
    00:26:49.524                : en:Capítulo 05
    00:33:38.725                : en:Capítulo 06
    00:39:39.460                : en:Capítulo 07
    00:45:47.703                : en:Capítulo 08
    00:53:37.130                : en:Capítulo 09
    01:00:58.488                : en:Capítulo 10
    01:08:36.028                : en:Capítulo 11
    01:16:13.277                : en:Capítulo 12
    01:23:13.571                : en:Capítulo 13
    01:29:06.507                : en:Capítulo 14
    01:35:59.587                : en:Capítulo 15
    01:43:04.178                : en:Capítulo 16

  • Peso: 21.3 GiB

Sinopsis

La joven Annabel Beam es una niña de diez años que padece un extraño e incurable trastorno digestivo. Su madre Christy hace todo lo que está en su mano para intentar ayudar a la pequeña, pero sin resultados. Tras un terrible accidente que casi ocasiona su muerte, Annabel supera su enfermedad gracias a un milagro que deja sin habla a su familia, los médicos y toda la comunidad.

Ficha técnica

Video trailer de la película

Enlaces de descarga

Rip de Bluray

Descargar Miracles From Heaven (2016) REMUX 1080p Latino – CMHDD


Aportes de DPeliculasHDmega la pass es:dpeliculashdmega.org Aportes de CinemaniaHD la pass es:cinemaniahdd.com Aportes recientes:cinemaniahdd.net
Guardado en : Drama , Familia

Películas relacionadas

descargar Miracles From Heaven (2016) REMUX 1080p Latino – CMHDD Full 1080p 1080p gratis, Miracles From Heaven (2016) REMUX 1080p Latino – CMHDD Full 1080p mega 1 link, Miracles From Heaven (2016) REMUX 1080p Latino – CMHDD Full 1080p pelicula completa, descargar Miracles From Heaven (2016) REMUX 1080p Latino – CMHDD Full 1080p gratis en mega.

Miracles From Heaven (2016) REMUX 1080p Latino – CMHDD pelicula full hd, Miracles From Heaven (2016) REMUX 1080p Latino – CMHDD mega latino, Miracles From Heaven (2016) REMUX 1080p Latino – CMHDD 4k latino, Miracles From Heaven (2016) REMUX 1080p Latino – CMHDD pelicula completa, Miracles From Heaven (2016) REMUX 1080p Latino – CMHDD descargar gratis, descargar Miracles From Heaven (2016) REMUX 1080p Latino – CMHDD pelicula latino, Miracles From Heaven (2016) REMUX 1080p Latino – CMHDD 1 link mega, Miracles From Heaven (2016) REMUX 1080p Latino – CMHDD 1 link google drive, Miracles From Heaven (2016) REMUX 1080p Latino – CMHDD hd 1080p latino.
Comentarios 0