×

¿Problemas para descargar con Mozilla, EDGE? Deshabilita la opción "Abrir vinculos en una pestaña nueva" tal como lo muestra ésta imagen.

Minions: Nace un villano (2022) MA WEB-DL 4K UHD HDR Latino

1.323 vistas

Información de Minions: Nace un villano (2022) MA WEB-DL 4K UHD HDR Latino

Datos de la película

  • Calidad: WEBDL
  • Audio: Español Latino AC3 5.1 WEB-DL - Ingles AC3 5.1 WEB-DL
  • Subtitulos: Español Latino SRT- FORZADOS SRT
  • Resolución: 3840x2160p
  • Formato: MKV
  • Codec: HEVC
  • Encoder: Melkor
  • Mediainfo: Clic para Mostrar Datos Ver
  • Minions. Nace Un Villano (2022) MA WEB UHD HDR Latino.mkv
    Format                      : Matroska
    Format version              : Version 4
    File size                   : 15.9 GiB
    Duration                    : 1 h 27 min
    Overall bit rate            : 26.0 Mb/s
    Movie name                  : Minions. The Rise of Gru (2022) CinemaniaHDD.Net
    Encoded date                : UTC 2022-08-02 07:48:33
    Writing application         : mkvmerge v56.1.0 ('My Friend') 64-bit
    Writing library             : libebml v1.4.2 + libmatroska v1.6.4
    Attachments                 : CINEMANIAHD.png

    Video
    ID                          : 1
    Format                      : HEVC
    Format/Info                 : High Efficiency Video Coding
    Format profile              : Main 10@L5@High
    HDR format                  : Dolby Vision, Version 1.0, dvhe.08.06, BL+RPU, HDR10 compatible / SMPTE ST 2086, HDR10 compatible
    Codec ID                    : V_MPEGH/ISO/HEVC
    Duration                    : 1 h 27 min
    Bit rate                    : 24.8 Mb/s
    Width                       : 3 840 pixels
    Height                      : 2 160 pixels
    Display aspect ratio        : 16:9
    Frame rate mode             : Constant
    Frame rate                  : 23.976 (24000/1001) FPS
    Color space                 : YUV
    Chroma subsampling          : 4:2:0 (Type 2)
    Bit depth                   : 10 bits
    Bits/(Pixel*Frame)          : 0.125
    Stream size                 : 15.1 GiB (95%)
    Title                       : Web 2160p HDR [CinemaniaHDD]
    Language                    : English
    Default                     : Yes
    Forced                      : No
    Color range                 : Limited
    Color primaries             : BT.2020
    Transfer characteristics    : PQ
    Matrix coefficients         : BT.2020 non-constant
    Mastering display color pri : BT.2020
    Mastering display luminance : min: 0.0050 cd/m2, max: 1000 cd/m2
    Maximum Content Light Level : 1000 cd/m2
    Maximum Frame-Average Light : 719 cd/m2

    Audio #1
    ID                          : 2
    Format                      : AC-3
    Format/Info                 : Audio Coding 3
    Commercial name             : Dolby Digital
    Codec ID                    : A_AC3
    Duration                    : 1 h 27 min
    Bit rate mode               : Constant
    Bit rate                    : 448 kb/s
    Channel(s)                  : 6 channels
    Channel layout              : L R C LFE Ls Rs
    Sampling rate               : 48.0 kHz
    Frame rate                  : 31.250 FPS (1536 SPF)
    Compression mode            : Lossy
    Stream size                 : 280 MiB (2%)
    Title                       : Español Latino [CinemaniaHDD]
    Language                    : Spanish
    Service kind                : Complete Main
    Default                     : Yes
    Forced                      : Yes

    Audio #2
    ID                          : 3
    Format                      : E-AC-3 JOC
    Format/Info                 : Enhanced AC-3 with Joint Object Coding
    Commercial name             : Dolby Digital Plus with Dolby Atmos
    Codec ID                    : A_EAC3
    Duration                    : 1 h 27 min
    Bit rate mode               : Constant
    Bit rate                    : 768 kb/s
    Channel(s)                  : 6 channels
    Channel layout              : L R C LFE Ls Rs
    Sampling rate               : 48.0 kHz
    Frame rate                  : 31.250 FPS (1536 SPF)
    Compression mode            : Lossy
    Stream size                 : 481 MiB (3%)
    Title                       : Ingles [CinemaniaHDD]
    Language                    : English
    Service kind                : Complete Main
    Default                     : No
    Forced                      : No
    Complexity index            : 16
    Number of dynamic objects   : 15
    Bed channel count           : 1 channel
    Bed channel configuration   : LFE

    Text #1
    ID                          : 4
    Format                      : UTF-8
    Codec ID                    : S_TEXT/UTF8
    Codec ID/Info               : UTF-8 Plain Text
    Duration                    : 1 h 26 min
    Bit rate                    : 1 b/s
    Count of elements           : 51
    Stream size                 : 1.11 KiB (0%)
    Title                       : Forzados-SRT [CinemaniaHDD]
    Language                    : Spanish
    Default                     : Yes
    Forced                      : Yes

    Text #2
    ID                          : 5
    Format                      : UTF-8
    Codec ID                    : S_TEXT/UTF8
    Codec ID/Info               : UTF-8 Plain Text
    Duration                    : 1 h 26 min
    Bit rate                    : 34 b/s
    Count of elements           : 949
    Stream size                 : 22.0 KiB (0%)
    Title                       : Español-SRT [CinemaniaHDD]
    Language                    : Spanish
    Default                     : No
    Forced                      : No

    Text #3
    ID                          : 6
    Format                      : UTF-8
    Codec ID                    : S_TEXT/UTF8
    Codec ID/Info               : UTF-8 Plain Text
    Duration                    : 1 h 27 min
    Bit rate                    : 70 b/s
    Count of elements           : 1892
    Stream size                 : 45.0 KiB (0%)
    Title                       : Ingles-SRT [CinemaniaHDD]
    Language                    : English
    Default                     : No
    Forced                      : No

    Menu
    00:00:00.000                : Chapter 01
    00:02:21.558                : Chapter 02
    00:07:38.083                : Chapter 03
    00:12:47.684                : Chapter 04
    00:17:50.528                : Chapter 05
    00:20:46.329                : Chapter 06
    00:26:20.538                : Chapter 07
    00:29:01.658                : Chapter 08
    00:33:33.430                : Chapter 09
    00:38:49.454                : Chapter 10
    00:43:23.770                : Chapter 11
    00:48:59.773                : Chapter 12
    00:50:27.068                : Chapter 13
    00:55:39.631                : Chapter 14
    01:00:00.975                : Chapter 15
    01:05:33.058                : Chapter 16
    01:07:40.977                : Chapter 17
    01:10:58.133                : Chapter 18
    01:16:26.169                : Chapter 19
    01:19:31.104                : Chapter 20

  • Peso: 15.9 GiB

Sinopsis

Descargar Minions: Nace un villano (2022) MA WEB-DL 4K UHD HDR Latino. Mucho antes de convertirse en un genio del mal, Gru no era más que un chaval de 12 años en plenos años 70 tratando de conquistar el mundo desde el sótano de su casa de un barrio residencial cualquiera. Y no le iba demasiado bien. Pero cuando Gru se cruza en su camino con Kevin, Stuart, Bob, y Otto —un nuevo Minion con aparato en los dientes y desesperado por sentirse aceptado—, esta inesperada familia unirá fuerzas para construir su primera guarida, diseñar sus primeras armas y llevar a cabo sus primeras misiones.

Ficha técnica

Video trailer de la película

Enlaces de descarga

Rip de Bluray

Descargar Minions: Nace un villano (2022) MA WEB-DL 4K UHD HDR Latino




Aportes de DPeliculasHDmega la pass es:dpeliculashdmega.org Aportes de CinemaniaHD la pass es:cinemaniahdd.com

Películas relacionadas

Minions: Nace un villano (2022) MA WEB-DL 4K UHD HDR Latino pelicula full hd, Minions: Nace un villano (2022) MA WEB-DL 4K UHD HDR Latino mega latino, Minions: Nace un villano (2022) MA WEB-DL 4K UHD HDR Latino 4k latino, Minions: Nace un villano (2022) MA WEB-DL 4K UHD HDR Latino pelicula completa, Minions: Nace un villano (2022) MA WEB-DL 4K UHD HDR Latino descargar gratis, descargar Minions: Nace un villano (2022) MA WEB-DL 4K UHD HDR Latino pelicula latino, Minions: Nace un villano (2022) MA WEB-DL 4K UHD HDR Latino 1 link mega, Minions: Nace un villano (2022) MA WEB-DL 4K UHD HDR Latino 1 link google drive, Minions: Nace un villano (2022) MA WEB-DL 4K UHD HDR Latino hd 1080p latino.
Comentarios 2
  • cristian - 02 agosto, 2022

    Descargué minions y me dice que el pass es incorrecto , ninguno de los 2 me sirve y nunca tube problemas con esto

    • Melkor - 02 agosto, 2022

      La Contraseña está indicada en el paste escribirla manualmente, copiar y pegar no funciona, sin comillas: «dpeliculashdmega.org» para aportes muy antiguos, «cinemaniahdd.com» para aportes mas recientes y/o con «.net» para los mas nuevos