×

¿Problemas para descargar con Mozilla, EDGE? Deshabilita la opción "Abrir vinculos en una pestaña nueva" tal como lo muestra ésta imagen.

Minions: Nace un villano (2022) REMUX 1080p Latino

129 vistas

Información de Minions: Nace un villano (2022) REMUX 1080p Latino

Datos de la película

  • Calidad: Full 1080p
  • Audio: Se especifica abajo de la Sinopsis
  • Subtitulos: Español PGS - Ingles PGS
  • Resolución: 1920x1080p
  • Formato: MKV
  • Codec: H.264
  • Encoder: Melkor
  • Mediainfo: Clic para Mostrar Datos Ver
  • Minions. Nace Un Villano (2022) REMUX 1080p Latino.mkv
    Format                      : Matroska
    Format version              : Version 4
    File size                   : 20.4 GiB
    Duration                    : 1 h 27 min
    Overall bit rate mode       : Variable
    Overall bit rate            : 33.5 Mb/s
    Movie name                  : Minions. The Rise of Gru (2022) CinemaniaHDD.Net
    Encoded date                : UTC 2022-08-30 03:26:25
    Writing application         : mkvmerge v56.1.0 ('My Friend') 64-bit
    Writing library             : libebml v1.4.2 + libmatroska v1.6.4
    Attachments                 : CINEMANIAHD.png

    Video
    ID                          : 1
    Format                      : AVC
    Format/Info                 : Advanced Video Codec
    Format profile              : High@L4.1
    Format settings             : CABAC / 4 Ref Frames
    Format settings, CABAC      : Yes
    Format settings, Reference  : 4 frames
    Codec ID                    : V_MPEG4/ISO/AVC
    Duration                    : 1 h 27 min
    Bit rate mode               : Variable
    Bit rate                    : 28.5 Mb/s
    Maximum bit rate            : 30.0 Mb/s
    Width                       : 1 920 pixels
    Height                      : 1 080 pixels
    Display aspect ratio        : 16:9
    Frame rate mode             : Constant
    Frame rate                  : 23.976 (24000/1001) FPS
    Color space                 : YUV
    Chroma subsampling          : 4:2:0
    Bit depth                   : 8 bits
    Scan type                   : Progressive
    Bits/(Pixel*Frame)          : 0.573
    Stream size                 : 17.4 GiB (85%)
    Title                       : REMUX HD1080p [CinemaniaHDD]
    Default                     : Yes
    Forced                      : Yes

    Audio #1
    ID                          : 2
    Format                      : E-AC-3
    Format/Info                 : Enhanced AC-3
    Commercial name             : Dolby Digital Plus
    Format profile              : Blu-ray Disc
    Codec ID                    : A_EAC3
    Duration                    : 1 h 27 min
    Bit rate mode               : Constant
    Bit rate                    : 768 kb/s
    Channel(s)                  : 8 channels
    Channel layout              : L R C LFE Ls Rs Lb Rb
    Sampling rate               : 48.0 kHz
    Frame rate                  : 31.250 FPS (1536 SPF)
    Compression mode            : Lossy
    Stream size                 : 480 MiB (2%)
    Title                       : Español Latino DDP [CinemaniaHDD]
    Language                    : Spanish
    Service kind                : Complete Main
    Default                     : No
    Forced                      : No

    Audio #2
    ID                          : 3
    Format                      : MLP FBA 16-ch
    Format/Info                 : Meridian Lossless Packing FBA with 16-channel presentation
    Commercial name             : Dolby TrueHD with Dolby Atmos
    Codec ID                    : A_TRUEHD
    Duration                    : 1 h 27 min
    Bit rate mode               : Variable
    Bit rate                    : 3 245 kb/s
    Maximum bit rate            : 4 368 kb/s
    Channel(s)                  : 8 channels
    Channel layout              : L R C LFE Ls Rs Lb Rb
    Sampling rate               : 48.0 kHz
    Frame rate                  : 1 200.000 FPS (40 SPF)
    Compression mode            : Lossless
    Stream size                 : 1.98 GiB (10%)
    Title                       : Ingles THD[CinemaniaHDD]
    Language                    : English
    Default                     : No
    Forced                      : No
    Number of dynamic objects   : 11
    Bed channel count           : 1 channel
    Bed channel configuration   : LFE

    Audio #3
    ID                          : 4
    Format                      : AC-3
    Format/Info                 : Audio Coding 3
    Commercial name             : Dolby Digital
    Codec ID                    : A_AC3
    Duration                    : 1 h 27 min
    Bit rate mode               : Constant
    Bit rate                    : 448 kb/s
    Channel(s)                  : 6 channels
    Channel layout              : L R C LFE Ls Rs
    Sampling rate               : 48.0 kHz
    Frame rate                  : 31.250 FPS (1536 SPF)
    Compression mode            : Lossy
    Stream size                 : 280 MiB (1%)
    Title                       : Español Latino AC3 [CinemaniaHDD]
    Language                    : Spanish
    Service kind                : Complete Main
    Default                     : Yes
    Forced                      : Yes

    Audio #4
    ID                          : 5
    Format                      : AC-3
    Format/Info                 : Audio Coding 3
    Commercial name             : Dolby Digital
    Codec ID                    : A_AC3
    Duration                    : 1 h 27 min
    Bit rate mode               : Constant
    Bit rate                    : 448 kb/s
    Channel(s)                  : 6 channels
    Channel layout              : L R C LFE Ls Rs
    Sampling rate               : 48.0 kHz
    Frame rate                  : 31.250 FPS (1536 SPF)
    Compression mode            : Lossy
    Stream size                 : 280 MiB (1%)
    Title                       : Ingles AC3 [CinemaniaHDD]
    Language                    : English
    Service kind                : Complete Main
    Default                     : No
    Forced                      : No

    Text #1
    ID                          : 6
    Format                      : PGS
    Muxing mode                 : zlib
    Codec ID                    : S_HDMV/PGS
    Codec ID/Info               : Picture based subtitle format used on BDs/HD-DVDs
    Duration                    : 1 h 26 min
    Bit rate                    : 1 373 b/s
    Count of elements           : 104
    Stream size                 : 868 KiB (0%)
    Title                       : Forzados-PGS [CinemaniaHDD]
    Language                    : Spanish
    Default                     : No
    Forced                      : No

    Text #2
    ID                          : 7
    Format                      : PGS
    Muxing mode                 : zlib
    Codec ID                    : S_HDMV/PGS
    Codec ID/Info               : Picture based subtitle format used on BDs/HD-DVDs
    Duration                    : 1 h 26 min
    Bit rate                    : 22.1 kb/s
    Count of elements           : 1884
    Stream size                 : 13.7 MiB (0%)
    Title                       : Español-PGS [CinemaniaHDD]
    Language                    : Spanish
    Default                     : No
    Forced                      : No

    Text #3
    ID                          : 8
    Format                      : PGS
    Muxing mode                 : zlib
    Codec ID                    : S_HDMV/PGS
    Codec ID/Info               : Picture based subtitle format used on BDs/HD-DVDs
    Duration                    : 1 h 26 min
    Bit rate                    : 37.5 kb/s
    Count of elements           : 2852
    Stream size                 : 23.3 MiB (0%)
    Title                       : Ingles-PGS [CinemaniaHDD]
    Language                    : English
    Default                     : No
    Forced                      : No

    Text #4
    ID                          : 9
    Format                      : UTF-8
    Codec ID                    : S_TEXT/UTF8
    Codec ID/Info               : UTF-8 Plain Text
    Duration                    : 1 h 26 min
    Bit rate                    : 1 b/s
    Count of elements           : 51
    Stream size                 : 1.11 KiB (0%)
    Title                       : Forzados-SRT [CinemaniaHDD]
    Language                    : Spanish
    Default                     : Yes
    Forced                      : Yes

    Text #5
    ID                          : 10
    Format                      : UTF-8
    Codec ID                    : S_TEXT/UTF8
    Codec ID/Info               : UTF-8 Plain Text
    Duration                    : 1 h 26 min
    Bit rate                    : 34 b/s
    Count of elements           : 949
    Stream size                 : 21.7 KiB (0%)
    Title                       : Español-SRT [CinemaniaHDD]
    Language                    : Spanish
    Default                     : No
    Forced                      : No

    Menu
    00:00:00.000                : Chapter 01
    00:02:21.224                : Chapter 02
    00:07:37.749                : Chapter 03
    00:12:47.350                : Chapter 04
    00:17:50.194                : Chapter 05
    00:20:45.995                : Chapter 06
    00:26:20.204                : Chapter 07
    00:29:01.323                : Chapter 08
    00:33:33.094                : Chapter 09
    00:38:49.118                : Chapter 10
    00:43:23.434                : Chapter 11
    00:48:59.436                : Chapter 12
    00:50:26.732                : Chapter 13
    00:55:39.294                : Chapter 14
    01:00:00.639                : Chapter 15
    01:05:32.720                : Chapter 16
    01:07:40.640                : Chapter 17
    01:10:57.795                : Chapter 18
    01:16:25.831                : Chapter 19
    01:19:30.766                : Chapter 20

  • Peso: 20.4 GiB

Sinopsis

Descargar Minions: Nace un villano (2022) REMUX 1080p Latino. Mucho antes de convertirse en un genio del mal, Gru no era más que un chaval de 12 años en plenos años 70 tratando de conquistar el mundo desde el sótano de su casa de un barrio residencial cualquiera. Y no le iba demasiado bien. Pero cuando Gru se cruza en su camino con Kevin, Stuart, Bob, y Otto —un nuevo Minion con aparato en los dientes y desesperado por sentirse aceptado—, esta inesperada familia unirá fuerzas para construir su primera guarida, diseñar sus primeras armas y llevar a cabo sus primeras misiones.

Español Latino EAC3 7.1 & Core AC3 5.1 BD – Ingles TrueHD 7.1 & Core AC3 5.1 BD

Ficha técnica

Video trailer de la película

Enlaces de descarga

Rip de Bluray

Descargar Minions: Nace un villano (2022) REMUX 1080p Latino




Aportes de DPeliculasHDmega la pass es:dpeliculashdmega.org Aportes de CinemaniaHD la pass es:cinemaniahdd.com
Guardado en : Adventure , Animation , Comedy , Fantasy , Remux

Películas relacionadas

  • Mi amigo el dragón (2016) REMUX 1080p Latino

    Mi amigo el dragón (2016) REMUX 1080p Latino

    2016
    Mi amigo el dragón (2016) REMUX 1080p Latino

    1h 43m 2016

    Descargar Mi amigo el dragón (2016) REMUX 1080p Latino. Durante años el Sr. Meacham, un viejo tallador...

    Director: Joe Nolan

    Género: Aventura

    Actores: William J. Rawbone

  • El discurso del Rey (2010) REMUX 1080p Latino

    El discurso del Rey (2010) REMUX 1080p Latino

    2010
    El discurso del Rey (2010) REMUX 1080p Latino

    1h 58m 2010

    Descargar El discurso del Rey (2010) REMUX 1080p Latino. El duque de York se convirtió en rey de Gran...

    Director: Tom Hooper

    Género: Drama

    Actores: Tony Earnshaw

  • La Ladrona De Libros (2013) REMUX 1080p Latino

    La Ladrona De Libros (2013) REMUX 1080p Latino

    2013
    La Ladrona De Libros (2013) REMUX 1080p Latino

    2h 11m 2013

    Descargar La Ladrona De Libros (2013) REMUX 1080p Latino. La novela de 550 páginas de la Segunda Guerra...

    Director: Elizabeth West

    Género: Drama

    Actores: Stephanie Stremler

descargar Minions: Nace un villano (2022) REMUX 1080p Latino Full 1080p 1080p gratis, Minions: Nace un villano (2022) REMUX 1080p Latino Full 1080p mega 1 link, Minions: Nace un villano (2022) REMUX 1080p Latino Full 1080p pelicula completa, descargar Minions: Nace un villano (2022) REMUX 1080p Latino Full 1080p gratis en mega.

Minions: Nace un villano (2022) REMUX 1080p Latino pelicula full hd, Minions: Nace un villano (2022) REMUX 1080p Latino mega latino, Minions: Nace un villano (2022) REMUX 1080p Latino 4k latino, Minions: Nace un villano (2022) REMUX 1080p Latino pelicula completa, Minions: Nace un villano (2022) REMUX 1080p Latino descargar gratis, descargar Minions: Nace un villano (2022) REMUX 1080p Latino pelicula latino, Minions: Nace un villano (2022) REMUX 1080p Latino 1 link mega, Minions: Nace un villano (2022) REMUX 1080p Latino 1 link google drive, Minions: Nace un villano (2022) REMUX 1080p Latino hd 1080p latino.
Comentarios 0