×

¿Problemas para descargar con Mozilla, EDGE? Deshabilita la opción "Abrir vinculos en una pestaña nueva" tal como lo muestra ésta imagen.

Minions: Nace un villano (2022) AMZN WEB-DL 1080p Latino

1.544 vistas

Información de Minions: Nace un villano (2022) AMZN WEB-DL 1080p Latino

Datos de la película

  • Calidad: WEBDL
  • Audio: Español Latino AC3 5.1 WEB-DL - Ingles AC3 5.1 WEB-DL
  • Subtitulos: Español Latino SRT- FORZADOS SRT
  • Resolución: 1920x800p
  • Formato: MKV
  • Codec: H.264
  • Encoder: Melkor
  • Mediainfo: Clic para Mostrar Datos Ver
  • Minions. Nace Un Villano (2022) AMZN WebDL 1080p Latino.mkv
    Format                      : Matroska
    Format version              : Version 4
    File size                   : 6.36 GiB
    Duration                    : 1 h 27 min
    Overall bit rate            : 10.4 Mb/s
    Movie name                  : Minions. The Rise of Gru (2022) CinemaniaHDD.Net
    Encoded date                : UTC 2022-08-02 07:17:09
    Writing application         : mkvmerge v56.1.0 ('My Friend') 64-bit
    Writing library             : libebml v1.4.2 + libmatroska v1.6.4
    Attachments                 : CINEMANIAHD.png

    Video
    ID                          : 1
    Format                      : AVC
    Format/Info                 : Advanced Video Codec
    Format profile              : High@L4
    Format settings             : CABAC / 4 Ref Frames
    Format settings, CABAC      : Yes
    Format settings, Reference  : 4 frames
    Codec ID                    : V_MPEG4/ISO/AVC
    Duration                    : 1 h 27 min
    Bit rate mode               : Constant
    Bit rate                    : 9 309 kb/s
    Nominal bit rate            : 10 000 kb/s
    Width                       : 1 920 pixels
    Height                      : 800 pixels
    Display aspect ratio        : 2.40:1
    Frame rate mode             : Constant
    Frame rate                  : 23.976 (24000/1001) FPS
    Color space                 : YUV
    Chroma subsampling          : 4:2:0
    Bit depth                   : 8 bits
    Scan type                   : Progressive
    Bits/(Pixel*Frame)          : 0.253
    Stream size                 : 5.70 GiB (90%)
    Title                       : Web HD1080p [CinemaniaHDD]
    Language                    : English
    Default                     : Yes
    Forced                      : Yes
    Color range                 : Limited
    Color primaries             : BT.709
    Transfer characteristics    : BT.709
    Matrix coefficients         : BT.709

    Audio #1
    ID                          : 2
    Format                      : AC-3
    Format/Info                 : Audio Coding 3
    Commercial name             : Dolby Digital
    Codec ID                    : A_AC3
    Duration                    : 1 h 27 min
    Bit rate mode               : Constant
    Bit rate                    : 448 kb/s
    Channel(s)                  : 6 channels
    Channel layout              : L R C LFE Ls Rs
    Sampling rate               : 48.0 kHz
    Frame rate                  : 31.250 FPS (1536 SPF)
    Compression mode            : Lossy
    Stream size                 : 280 MiB (4%)
    Title                       : Español Latino [CinemaniaHDD]
    Language                    : Spanish
    Service kind                : Complete Main
    Default                     : Yes
    Forced                      : Yes

    Audio #2
    ID                          : 3
    Format                      : E-AC-3
    Format/Info                 : Enhanced AC-3
    Commercial name             : Dolby Digital Plus
    Codec ID                    : A_EAC3
    Duration                    : 1 h 27 min
    Bit rate mode               : Constant
    Bit rate                    : 640 kb/s
    Channel(s)                  : 6 channels
    Channel layout              : L R C LFE Ls Rs
    Sampling rate               : 48.0 kHz
    Frame rate                  : 31.250 FPS (1536 SPF)
    Compression mode            : Lossy
    Stream size                 : 401 MiB (6%)
    Title                       : Ingles [CinemaniaHDD]
    Language                    : English
    Service kind                : Complete Main
    Default                     : No
    Forced                      : No

    Text #1
    ID                          : 4
    Format                      : UTF-8
    Codec ID                    : S_TEXT/UTF8
    Codec ID/Info               : UTF-8 Plain Text
    Duration                    : 1 h 26 min
    Bit rate                    : 1 b/s
    Count of elements           : 51
    Stream size                 : 1.11 KiB (0%)
    Title                       : Forzados-SRT [CinemaniaHDD]
    Language                    : Spanish
    Default                     : Yes
    Forced                      : Yes

    Text #2
    ID                          : 5
    Format                      : UTF-8
    Codec ID                    : S_TEXT/UTF8
    Codec ID/Info               : UTF-8 Plain Text
    Duration                    : 1 h 26 min
    Bit rate                    : 34 b/s
    Count of elements           : 949
    Stream size                 : 21.7 KiB (0%)
    Title                       : Español-SRT [CinemaniaHDD]
    Language                    : Spanish
    Default                     : No
    Forced                      : No

    Text #3
    ID                          : 6
    Format                      : UTF-8
    Codec ID                    : S_TEXT/UTF8
    Codec ID/Info               : UTF-8 Plain Text
    Duration                    : 1 h 27 min
    Bit rate                    : 69 b/s
    Count of elements           : 1892
    Stream size                 : 44.5 KiB (0%)
    Title                       : Ingles-SRT [CinemaniaHDD]
    Language                    : English
    Default                     : No
    Forced                      : No

  • Peso: 6.36 GiB

Sinopsis

Descargar Minions: Nace un villano (2022) AMZN WEB-DL 1080p Latino. Mucho antes de convertirse en un genio del mal, Gru no era más que un chaval de 12 años en plenos años 70 tratando de conquistar el mundo desde el sótano de su casa de un barrio residencial cualquiera. Y no le iba demasiado bien. Pero cuando Gru se cruza en su camino con Kevin, Stuart, Bob, y Otto —un nuevo Minion con aparato en los dientes y desesperado por sentirse aceptado—, esta inesperada familia unirá fuerzas para construir su primera guarida, diseñar sus primeras armas y llevar a cabo sus primeras misiones.

Ficha técnica

Video trailer de la película

Enlaces de descarga

Rip de Bluray

Descargar Minions: Nace un villano (2022) AMZN WEB-DL 1080p Latino




Aportes de DPeliculasHDmega la pass es:dpeliculashdmega.org Aportes de CinemaniaHD la pass es:cinemaniahdd.com

Películas relacionadas

Minions: Nace un villano (2022) AMZN WEB-DL 1080p Latino pelicula full hd, Minions: Nace un villano (2022) AMZN WEB-DL 1080p Latino mega latino, Minions: Nace un villano (2022) AMZN WEB-DL 1080p Latino 4k latino, Minions: Nace un villano (2022) AMZN WEB-DL 1080p Latino pelicula completa, Minions: Nace un villano (2022) AMZN WEB-DL 1080p Latino descargar gratis, descargar Minions: Nace un villano (2022) AMZN WEB-DL 1080p Latino pelicula latino, Minions: Nace un villano (2022) AMZN WEB-DL 1080p Latino 1 link mega, Minions: Nace un villano (2022) AMZN WEB-DL 1080p Latino 1 link google drive, Minions: Nace un villano (2022) AMZN WEB-DL 1080p Latino hd 1080p latino.
Comentarios 3
  • .SirCumsAlot - 02 agosto, 2022

    Bandita, las dos contraseñas aparecen incorrectas, pasen la buena porfa

    • Melkor - 02 agosto, 2022

      La Contraseña está indicada en el paste escribirla manualmente, copiar y pegar no funciona, sin comillas: «dpeliculashdmega.org» para aportes muy antiguos, «cinemaniahdd.com» para aportes mas recientes y/o con «.net» para los mas nuevos

      • patoky - 02 agosto, 2022

        …muchas gracias por tu respuesta…el «net» no lo tenía considerado…saludos!!