×

¿Problemas para descargar con Mozilla, EDGE? Deshabilita la opción "Abrir vinculos en una pestaña nueva" tal como lo muestra ésta imagen.

Mingle All the Way (2018) AMZN WEB-DL 1080p Latino

137 vistas

Información de Mingle All the Way (2018) AMZN WEB-DL 1080p Latino

Datos de la película

  • Calidad: 1080p
  • Audio: Español Latino AC3 2.0 WEB-DL - Ingles AC3 2.0 WEB-DL
  • Subtitulos: No
  • Resolución: 1920x1080
  • Formato: MKV
  • Codec: H.264
  • Encoder: cinemaniahdd
  • Mediainfo: Clic para Mostrar Datos Ver
  • Mingle All the Way (2018) AMZN WEB-DL 1080p Latino [CNMNHDD].mkv
    Format                      : Matroska
    Format version              : Version 4
    File size                   : 5.99 GiB
    Duration                    : 1 h 26 min
    Overall bit rate mode       : Constant
    Overall bit rate            : 9 904 kb/s
    Movie name                  : Mingle All the Way (2018) - CinemaniaHDD.Net
    Encoded date                : UTC 2021-11-02 16:08:52
    Writing application         : mkvmerge v46.0.0 ('No Deeper Escape') 64-bit
    Writing library             : libebml v1.3.10 + libmatroska v1.5.2

    Video
    ID                          : 1
    Format                      : AVC
    Format/Info                 : Advanced Video Codec
    Format profile              : High@L4
    Format settings             : CABAC / 4 Ref Frames
    Format settings, CABAC      : Yes
    Format settings, Reference  : 4 frames
    Codec ID                    : V_MPEG4/ISO/AVC
    Duration                    : 1 h 26 min
    Bit rate mode               : Constant
    Bit rate                    : 9 454 kb/s
    Nominal bit rate            : 10 000 kb/s
    Width                       : 1 920 pixels
    Height                      : 1 080 pixels
    Display aspect ratio        : 16:9
    Frame rate mode             : Constant
    Frame rate                  : 23.976 (24000/1001) FPS
    Color space                 : YUV
    Chroma subsampling          : 4:2:0
    Bit depth                   : 8 bits
    Scan type                   : Progressive
    Bits/(Pixel*Frame)          : 0.190
    Stream size                 : 5.72 GiB (95%)
    Title                       : CinemaniaHDD
    Language                    : English
    Default                     : Yes
    Forced                      : No
    Color range                 : Limited
    Color primaries             : BT.709
    Transfer characteristics    : BT.709
    Matrix coefficients         : BT.709

    Audio #1
    ID                          : 2
    Format                      : E-AC-3
    Format/Info                 : Enhanced AC-3
    Commercial name             : Dolby Digital Plus
    Codec ID                    : A_EAC3
    Duration                    : 1 h 26 min
    Bit rate mode               : Constant
    Bit rate                    : 224 kb/s
    Channel(s)                  : 2 channels
    Channel layout              : L R
    Sampling rate               : 48.0 kHz
    Frame rate                  : 31.250 FPS (1536 SPF)
    Compression mode            : Lossy
    Stream size                 : 139 MiB (2%)
    Title                       : Español latino [CinemaniaHDD]
    Language                    : Spanish
    Service kind                : Complete Main
    Default                     : Yes
    Forced                      : No

    Audio #2
    ID                          : 3
    Format                      : E-AC-3
    Format/Info                 : Enhanced AC-3
    Commercial name             : Dolby Digital Plus
    Codec ID                    : A_EAC3
    Duration                    : 1 h 26 min
    Bit rate mode               : Constant
    Bit rate                    : 224 kb/s
    Channel(s)                  : 2 channels
    Channel layout              : L R
    Sampling rate               : 48.0 kHz
    Frame rate                  : 31.250 FPS (1536 SPF)
    Compression mode            : Lossy
    Stream size                 : 139 MiB (2%)
    Title                       : Inglés [CinemaniaHDD]
    Language                    : English
    Service kind                : Complete Main
    Default                     : No
    Forced                      : No

     

  • Peso: 5.99 GiB

Sinopsis

«Mingle All the Way» es una aplicación diseñada para encontrar acompañantes para eventos a personas muy ocupadas. Molly, fundadora de la aplicación, está decidida a demostrarle a su familia que esta es un éxito. Para ello, se registra y contacta con Jeff. Cuando se encuentran, se horrorizan al darse cuenta de que ya habían tenido dos desastrosos encuentros. Sin embargo, deciden asistir juntos a sus respectivos eventos navideños. A medida que la pareja se va acercando, descubren que tal vez su acuerdo comercial podría convertirse en algo más.

Ficha técnica

Video trailer de la película

Enlaces de descarga

Rip de Bluray

Descargar Mingle All the Way (2018) AMZN WEB-DL 1080p Latino




Aportes de DPeliculasHDmega la pass es:dpeliculashdmega.org Aportes de CinemaniaHD la pass es:cinemaniahdd.com
Guardado en : Película de TV , Romance

Películas relacionadas

descargar Mingle All the Way (2018) AMZN WEB-DL 1080p Latino 1080p 1080p gratis, Mingle All the Way (2018) AMZN WEB-DL 1080p Latino 1080p mega 1 link, Mingle All the Way (2018) AMZN WEB-DL 1080p Latino 1080p pelicula completa, descargar Mingle All the Way (2018) AMZN WEB-DL 1080p Latino 1080p gratis en mega.

Mingle All the Way (2018) AMZN WEB-DL 1080p Latino pelicula full hd, Mingle All the Way (2018) AMZN WEB-DL 1080p Latino mega latino, Mingle All the Way (2018) AMZN WEB-DL 1080p Latino 4k latino, Mingle All the Way (2018) AMZN WEB-DL 1080p Latino pelicula completa, Mingle All the Way (2018) AMZN WEB-DL 1080p Latino descargar gratis, descargar Mingle All the Way (2018) AMZN WEB-DL 1080p Latino pelicula latino, Mingle All the Way (2018) AMZN WEB-DL 1080p Latino 1 link mega, Mingle All the Way (2018) AMZN WEB-DL 1080p Latino 1 link google drive, Mingle All the Way (2018) AMZN WEB-DL 1080p Latino hd 1080p latino.
Comentarios 0