×

¿Problemas para descargar con Mozilla, EDGE? Deshabilita la opción "Abrir vinculos en una pestaña nueva" tal como lo muestra ésta imagen.

Minari (2020) WEB-DL 1080p SUB – CMHDD

274 vistas

Información de Minari (2020) WEB-DL 1080p SUB – CMHDD

Datos de la película

  • Calidad: WEBDL
  • Audio: Se especifica abajo de la Sinopsis
  • Subtitulos: Español Latino SRT
  • Resolución: 1920x800p
  • Formato: MKV
  • Codec: H.264
  • Encoder: Dracarys
  • Mediainfo: Clic para Mostrar Datos Ver
  • Format                      : Matroska
    Format version              : Version 4
    File size                   : 7.82 GiB
    Duration                    : 1 h 55 min
    Overall bit rate            : 9 702 kb/s
    Movie name                  : Minari (2020) WEB-DL 1080p SUB - CMHDD
    Encoded date                : UTC 2021-04-05 15:46:31
    Writing application         : mkvmerge v51.0.0 ('I Wish') 64-bit
    Writing library             : libebml v1.4.0 + libmatroska v1.6.2

    Video
    ID                          : 1
    Format                      : AVC
    Format/Info                 : Advanced Video Codec
    Format profile              : High@L4
    Format settings             : CABAC / 4 Ref Frames
    Format settings, CABAC      : Yes
    Format settings, Reference  : 4 frames
    Codec ID                    : V_MPEG4/ISO/AVC
    Duration                    : 1 h 55 min
    Bit rate mode               : Constant
    Bit rate                    : 9 060 kb/s
    Nominal bit rate            : 10 000 kb/s
    Width                       : 1 920 pixels
    Height                      : 800 pixels
    Display aspect ratio        : 2.40:1
    Frame rate mode             : Constant
    Frame rate                  : 23.976 (24000/1001) FPS
    Color space                 : YUV
    Chroma subsampling          : 4:2:0
    Bit depth                   : 8 bits
    Scan type                   : Progressive
    Bits/(Pixel*Frame)          : 0.246
    Stream size                 : 7.30 GiB (93%)
    Default                     : Yes
    Forced                      : No
    Color range                 : Limited
    Color primaries             : BT.709
    Transfer characteristics    : BT.709
    Matrix coefficients         : BT.709

    Audio
    ID                          : 2
    Format                      : E-AC-3
    Format/Info                 : Enhanced AC-3
    Commercial name             : Dolby Digital Plus
    Codec ID                    : A_EAC3
    Duration                    : 1 h 55 min
    Bit rate mode               : Constant
    Bit rate                    : 640 kb/s
    Channel(s)                  : 6 channels
    Channel layout              : L R C LFE Ls Rs
    Sampling rate               : 48.0 kHz
    Frame rate                  : 31.250 FPS (1536 SPF)
    Compression mode            : Lossy
    Stream size                 : 528 MiB (7%)
    Language                    : Korean
    Service kind                : Complete Main
    Default                     : Yes
    Forced                      : No

    Text
    ID                          : 3
    Format                      : UTF-8
    Codec ID                    : S_TEXT/UTF8
    Codec ID/Info               : UTF-8 Plain Text
    Duration                    : 1 h 48 min
    Bit rate                    : 40 b/s
    Count of elements           : 1261
    Stream size                 : 32.7 KiB (0%)
    Language                    : Spanish
    Default                     : Yes
    Forced                      : No
     

  • Peso: 7.82 GiB

Sinopsis

En la década de 1980, durante la presidencia de Reagan, una familia de emigrantes surcoreanos en EE.UU. decide instalarse en Arkansas, tras abandonar California. Trabajan sexando pollos, pero el sueño del padre es instalarse como granjero y cultivar verduras para mercado coreano estadounidense. La madre, sin embargo, preferiría vivir en un ciudad, cerca de un hospital, pues el hijo menor, David, está enfermo del corazón.

 

Coreano: E-AC3 5.1

Ficha técnica

Video trailer de la película

Enlaces de descarga

Rip de Bluray

Descargar Minari (2020) WEB-DL 1080p SUB – CMHDD




Aportes de DPeliculasHDmega la pass es:dpeliculashdmega.org Aportes de CinemaniaHD la pass es:cinemaniahdd.com
Guardado en : Drama

Películas relacionadas

  • Blonde (2022) NF WEB-DL 1080p Latino

    Blonde (2022) NF WEB-DL 1080p Latino

    2022
    Blonde (2022) NF WEB-DL 1080p Latino

    2h 46m 2022

    Descargar Blonde (2022) NF WEB-DL 1080p Latino. Basada en el bestseller de la cinco veces finalista al...

    Director: Kristin Bree Calabrese

    Género: Drama

    Actores: Xavier Samuel

  • Infiniti (2022) Primera Temporada WEB-DL 1080p Latino

    Infiniti (2022) Primera Temporada WEB-DL 1080p Latino

    2022
    Infiniti (2022) Primera Temporada WEB-DL 1080p Latino

    0h 52m 2022

    La ISS, la Estación Espacial Internacional se ha quedado en silencio. La tripulación está en peligro....

    Director: Stéphane Pannetier

    Género: Drama

    Actores: Vlad Ivanov

  • Athena (2022) NF WEB-DL 1080p Latino

    Athena (2022) NF WEB-DL 1080p Latino

    2022
    Athena (2022) NF WEB-DL 1080p Latino

    1h 37m 2022

    Descargar Athena (2022) NF WEB-DL 1080p Latino. Horas después de la trágica muerte de su hermano menor...

    Director: Romain Gavras

    Género: Acción

    Actores: Tarek Haddaji

descargar Minari (2020) WEB-DL 1080p SUB – CMHDD WEBDL 1080p gratis, Minari (2020) WEB-DL 1080p SUB – CMHDD WEBDL mega 1 link, Minari (2020) WEB-DL 1080p SUB – CMHDD WEBDL pelicula completa, descargar Minari (2020) WEB-DL 1080p SUB – CMHDD WEBDL gratis en mega.

Minari (2020) WEB-DL 1080p SUB – CMHDD pelicula full hd, Minari (2020) WEB-DL 1080p SUB – CMHDD mega latino, Minari (2020) WEB-DL 1080p SUB – CMHDD 4k latino, Minari (2020) WEB-DL 1080p SUB – CMHDD pelicula completa, Minari (2020) WEB-DL 1080p SUB – CMHDD descargar gratis, descargar Minari (2020) WEB-DL 1080p SUB – CMHDD pelicula latino, Minari (2020) WEB-DL 1080p SUB – CMHDD 1 link mega, Minari (2020) WEB-DL 1080p SUB – CMHDD 1 link google drive, Minari (2020) WEB-DL 1080p SUB – CMHDD hd 1080p latino.
Comentarios 0