×

¿Problemas para descargar con Mozilla, EDGE? Deshabilita la opción "Abrir vinculos en una pestaña nueva" tal como lo muestra ésta imagen.

Golpes del Destino (2004) Full HD 1080p Latino

678 vistas

Información de Golpes del Destino (2004) Full HD 1080p Latino

Datos de la película

  • Calidad: Full 1080p
  • Audio: Se especifica abajo de la Sinopsis
  • Subtitulos: Español Latino PGS - Ingles PGS
  • Resolución: 1920x1080p
  • Formato: MKV
  • Codec: H.264
  • Encoder: CinefiloCool
  • Mediainfo: Clic para Mostrar Datos Ver
  • Golpes del destino (2004) Full HD 1080p Latino-CMHDD.mkv
    Format                      : Matroska
    Format version              : Version 4
    File size                   : 6.16 GiB
    Duration                    : 2 h 12 min
    Overall bit rate            : 6 653 kb/s
    Movie name                  : Million Dollar Baby (2004) CinemaniaHDD.Net
    Encoded date                : UTC 2022-03-29 06:42:11
    Writing application         : mkvmerge v56.1.0 ('My Friend') 64-bit
    Writing library             : libebml v1.4.2 + libmatroska v1.6.4
    Attachments                 : CINEMANIAHD.png

    Video
    ID                          : 1
    Format                      : AVC
    Format/Info                 : Advanced Video Codec
    Format profile              : High@L4.1
    Format settings             : CABAC / 4 Ref Frames
    Format settings, CABAC      : Yes
    Format settings, Reference  : 4 frames
    Codec ID                    : V_MPEG4/ISO/AVC
    Duration                    : 2 h 12 min
    Bit rate                    : 4 650 kb/s
    Width                       : 1 920 pixels
    Height                      : 1 080 pixels
    Display aspect ratio        : 16:9
    Frame rate mode             : Constant
    Frame rate                  : 23.976 (24000/1001) FPS
    Color space                 : YUV
    Chroma subsampling          : 4:2:0
    Bit depth                   : 8 bits
    Scan type                   : Progressive
    Bits/(Pixel*Frame)          : 0.094
    Stream size                 : 4.30 GiB (70%)
    Title                       : Full HD1080p [CinemaniaHDD]
    Writing library             : x264 core 163 r3059 b684ebe0
    Encoding settings           : cabac=1 / ref=4 / deblock=1:0:0 / analyse=0x3:0x133 / me=tesa / subme=11 / psy=1 / psy_rd=1.00:0.00 / mixed_ref=1 / me_range=24 / chroma_me=1 / trellis=2 / 8x8dct=1 / cqm=0 / deadzone=21,11 / fast_pskip=0 / chroma_qp_offset=-2 / threads=24 / lookahead_threads=6 / sliced_threads=0 / nr=0 / decimate=1 / interlaced=0 / bluray_compat=0 / constrained_intra=0 / bframes=16 / b_pyramid=2 / b_adapt=2 / b_bias=0 / direct=3 / weightb=1 / open_gop=0 / weightp=2 / keyint=240 / keyint_min=24 / scenecut=40 / intra_refresh=0 / rc_lookahead=60 / rc=crf / mbtree=1 / crf=20.0 / qcomp=0.60 / qpmin=0 / qpmax=69 / qpstep=4 / vbv_maxrate=62500 / vbv_bufsize=78125 / crf_max=0.0 / nal_hrd=none / filler=0 / ip_ratio=1.40 / aq=1:1.00
    Default                     : Yes
    Forced                      : Yes
    Color range                 : Limited
    Color primaries             : BT.709
    Transfer characteristics    : BT.709
    Matrix coefficients         : BT.709

    Audio #1
    ID                          : 2
    Format                      : AC-3
    Format/Info                 : Audio Coding 3
    Commercial name             : Dolby Digital
    Codec ID                    : A_AC3
    Duration                    : 2 h 12 min
    Bit rate mode               : Constant
    Bit rate                    : 256 kb/s
    Channel(s)                  : 2 channels
    Channel layout              : L R
    Sampling rate               : 48.0 kHz
    Frame rate                  : 31.250 FPS (1536 SPF)
    Compression mode            : Lossy
    Stream size                 : 243 MiB (4%)
    Title                       : Español Latino AC3 [CinemaniaHDD]
    Language                    : Spanish
    Service kind                : Complete Main
    Default                     : Yes
    Forced                      : Yes

    Audio #2
    ID                          : 3
    Format                      : DTS ES
    Format/Info                 : Digital Theater Systems
    Commercial name             : DTS-ES Matrix
    Codec ID                    : A_DTS
    Duration                    : 2 h 12 min
    Bit rate mode               : Constant
    Bit rate                    : 1 509 kb/s
    Channel(s)                  : 6 channels
    Channel(s)_Original         : 7 channels
    ChannelLayout_Original      : C L R Ls Rs Cs LFE
    Sampling rate               : 48.0 kHz
    Frame rate                  : 93.750 FPS (512 SPF)
    Bit depth                   : 24 bits
    Compression mode            : Lossy
    Stream size                 : 1.40 GiB (23%)
    Title                       : Ingles [CinemaniaHDD]
    Language                    : English
    Default                     : No
    Forced                      : No

    Audio #3
    ID                          : 4
    Format                      : E-AC-3
    Format/Info                 : Enhanced AC-3
    Commercial name             : Dolby Digital Plus
    Codec ID                    : A_EAC3
    Duration                    : 2 h 12 min
    Bit rate mode               : Constant
    Bit rate                    : 224 kb/s
    Channel(s)                  : 2 channels
    Channel layout              : L R
    Sampling rate               : 48.0 kHz
    Frame rate                  : 31.250 FPS (1536 SPF)
    Compression mode            : Lossy
    Stream size                 : 212 MiB (3%)
    Title                       : Español Latino EAC3 [CinemaniaHDD]
    Language                    : Spanish
    Service kind                : Complete Main
    Default                     : No
    Forced                      : No

    Text #1
    ID                          : 5
    ID in the original source m : 4615 (0x1207)
    Format                      : PGS
    Muxing mode                 : zlib
    Codec ID                    : S_HDMV/PGS
    Codec ID/Info               : Picture based subtitle format used on BDs/HD-DVDs
    Duration                    : 2 h 6 min
    Bit rate                    : 20.3 kb/s
    Count of elements           : 2862
    Stream size                 : 18.4 MiB (0%)
    Title                       : Español-PGS [CinemaniaHDD]
    Language                    : Spanish
    Default                     : No
    Forced                      : No
    Original source medium      : Blu-ray

    Text #2
    ID                          : 6
    ID in the original source m : 4608 (0x1200)
    Format                      : PGS
    Muxing mode                 : zlib
    Codec ID                    : S_HDMV/PGS
    Codec ID/Info               : Picture based subtitle format used on BDs/HD-DVDs
    Duration                    : 2 h 7 min
    Bit rate                    : 24.2 kb/s
    Count of elements           : 2968
    Stream size                 : 22.0 MiB (0%)
    Title                       : Ingles-PGS [CinemaniaHDD]
    Language                    : English
    Default                     : No
    Forced                      : No
    Original source medium      : Blu-ray

    Text #3
    ID                          : 7
    Format                      : UTF-8
    Codec ID                    : S_TEXT/UTF8
    Codec ID/Info               : UTF-8 Plain Text
    Duration                    : 2 h 1 min
    Bit rate                    : 0 b/s
    Count of elements           : 8
    Stream size                 : 127 Bytes (0%)
    Title                       : Forzados-SRT [CinemaniaHDD]
    Language                    : Spanish
    Default                     : Yes
    Forced                      : Yes

    Text #4
    ID                          : 8
    Format                      : UTF-8
    Codec ID                    : S_TEXT/UTF8
    Codec ID/Info               : UTF-8 Plain Text
    Duration                    : 2 h 7 min
    Bit rate                    : 58 b/s
    Count of elements           : 1514
    Stream size                 : 54.4 KiB (0%)
    Title                       : Español-SRT [CinemaniaHDD]
    Language                    : Spanish
    Default                     : No
    Forced                      : No

    Menu
    00:00:00.000                : Chapter 01
    00:10:24.081                : Chapter 02
    00:17:39.348                : Chapter 03
    00:25:16.640                : Chapter 04
    00:28:17.278                : Chapter 05
    00:42:16.492                : Chapter 06
    00:48:40.500                : Chapter 07
    00:55:55.768                : Chapter 08
    01:03:56.998                : Chapter 09
    01:09:46.055                : Chapter 10
    01:11:31.119                : Chapter 11
    01:19:02.529                : Chapter 12
    01:24:51.377                : Chapter 13
    01:33:03.118                : Chapter 14
    01:43:24.198                : Chapter 15
    01:54:54.011                : Chapter 16
    02:01:45.797                : Chapter 17
    02:05:48.332                : Chapter 18

  • Peso: 6.16 GiB

Sinopsis

Descargar Golpes del Destino (2004) Full HD 1080p Latino. Frankie Dunn, después de haber entrenado y representado a los mejores púgiles, regenta un gimnasio con la ayuda de Scrap, un ex-boxeador que, además, es su único amigo. Frankie es un hombre solitario y adusto que se refugia desde hace años en la religión buscando una redención que no llega. Un día, entra en su gimnasio Maggie Fitzgerald, una voluntariosa chica que quiere boxear y que está dispuesta a luchar denodadamente para conseguirlo. Pero lo que más desea y necesita es que alguien crea en ella. Frankie la rechaza alegando que es demasiado mayor y que, además, él no entrena a chicas. Pero Maggie no se rinde y se machaca cada día en el gimnasio, con el único apoyo de Scrap. Finalmente, convencido de la inquebrantable determinación de Maggie, Frankie decide entrenarla.

Audio Español Latino EAC3 + AC3 2.0 Amzn – Ingles DTS 5.1 Bluray

Ficha técnica

Video trailer de la película

Enlaces de descarga

Rip de Bluray

Descargar Golpes del Destino (2004) Full HD 1080p Latino




Aportes de DPeliculasHDmega la pass es:dpeliculashdmega.org Aportes de CinemaniaHD la pass es:cinemaniahdd.com

Películas relacionadas

Golpes del Destino (2004) Full HD 1080p Latino pelicula full hd, Golpes del Destino (2004) Full HD 1080p Latino mega latino, Golpes del Destino (2004) Full HD 1080p Latino 4k latino, Golpes del Destino (2004) Full HD 1080p Latino pelicula completa, Golpes del Destino (2004) Full HD 1080p Latino descargar gratis, descargar Golpes del Destino (2004) Full HD 1080p Latino pelicula latino, Golpes del Destino (2004) Full HD 1080p Latino 1 link mega, Golpes del Destino (2004) Full HD 1080p Latino 1 link google drive, Golpes del Destino (2004) Full HD 1080p Latino hd 1080p latino.
Comentarios 0