Milla 22 (2018) Full 1080p Latino

2.197 vistas
1 estrella2 estrellas3 estrellas4 estrellas5 estrellas (3 votos, promedio: 5,00 de 5)
Cargando…

Información de Milla 22 (2018) Full 1080p Latino

Datos de la película

  • Calidad: Full 1080p
  • Audio: Español Latino AC3 5.1 DVD - Ingles DTS 5.1 BLURAY
  • Subtitulos: Español Latino SRT- FORZADOS SRT
  • Resolución: 1920x1080p
  • Formato: MKV
  • Codec: H.264
  • Encoder: Dracarys
  • Mediainfo: Clic para Mostrar Datos Ver
  • Format                                   : Matroska
    Format version                           : Version 4 / Version 2
    File size                                : 3.58 GiB
    Duration                                 : 1 h 34 min
    Overall bit rate                         : 5 411 kb/s
    Movie name                               : CinemaniaHDD.net
    Encoded date                             : UTC 2018-11-25 02:05:30 / UTC 2018-11-24T04:24:27Z
    Writing application                      : mkvmerge v15.0.0 ('Duel with the Devil') 64-bit
    Writing library                          : libebml v1.3.5 + libmatroska v1.4.5 / Lavf57.7.2

    Video
    ID                                       : 1
    Format                                   : AVC
    Format/Info                              : Advanced Video Codec
    Format profile                           : [email protected]
    Format settings                          : CABAC / 4 Ref Frames
    Format settings, CABAC                   : Yes
    Format settings, RefFrames               : 4 frames
    Codec ID                                 : V_MPEG4/ISO/AVC
    Duration                                 : 1 h 34 min
    Bit rate                                 : 4 216 kb/s
    Width                                    : 1 920 pixels
    Height                                   : 1 080 pixels
    Display aspect ratio                     : 16:9
    Frame rate mode                          : Constant
    Frame rate                               : 23.976 (24000/1001) FPS
    Color space                              : YUV
    Chroma subsampling                       : 4:2:0
    Bit depth                                : 8 bits
    Scan type                                : Progressive
    Bits/(Pixel*Frame)                       : 0.085
    Stream size                              : 2.79 GiB (78%)
    Writing library                          : x264 core 148 r2708 86b7198
    Encoding settings                        : cabac=1 / ref=4 / deblock=1:0:0 / analyse=0x3:0x133 / me=esa / subme=10 / psy=1 / psy_rd=1.00:0.00 / mixed_ref=1 / me_range=24 / chroma_me=1 / trellis=2 / 8x8dct=1 / cqm=0 / deadzone=21,11 / fast_pskip=1 / chroma_qp_offset=-2 / threads=34 / lookahead_threads=5 / sliced_threads=0 / nr=0 / decimate=1 / interlaced=0 / bluray_compat=0 / constrained_intra=0 / bframes=8 / b_pyramid=2 / b_adapt=2 / b_bias=0 / direct=3 / weightb=1 / open_gop=0 / weightp=2 / keyint=240 / keyint_min=24 / scenecut=40 / intra_refresh=0 / rc_lookahead=60 / rc=crf / mbtree=1 / crf=20.0 / qcomp=0.60 / qpmin=0 / qpmax=69 / qpstep=4 / vbv_maxrate=62500 / vbv_bufsize=78125 / crf_max=0.0 / nal_hrd=none / filler=0 / ip_ratio=1.40 / aq=1:1.00
    Language                                 : English
    Default                                  : Yes
    Forced                                   : No
    Color range                              : Limited
    Color primaries                          : BT.709
    Transfer characteristics                 : BT.709
    Matrix coefficients                      : BT.709
    Statistics Tags Issue                    : mkvmerge v15.0.0 ('Duel with the Devil') 64-bit 2018-11-25 02:05:30 / mkvmerge v15.0.0 ('Duel with the Devil') 64-bit 2018-11-25 02:05:30 / UTC 2018-11-24T04:24:27Z
    FromStats_BitRate                        : 4320941
    FromStats_Duration                       : 01:34:39.966000000
    FromStats_FrameCount                     : 136183
    FromStats_StreamSize                     : 3067849783

    Audio #1
    ID                                       : 2
    Format                                   : AC-3
    Format/Info                              : Audio Coding 3
    Format settings, Endianness              : Big
    Codec ID                                 : A_AC3
    Duration                                 : 1 h 34 min
    Bit rate mode                            : Constant
    Bit rate                                 : 448 kb/s
    Channel(s)                               : 6 channels
    Channel positions                        : Front: L C R, Side: L R, LFE
    Sampling rate                            : 44.1 kHz
    Frame rate                               : 28.711 FPS (1536 SPF)
    Bit depth                                : 16 bits
    Compression mode                         : Lossy
    Stream size                              : 303 MiB (8%)
    Language                                 : Spanish
    Service kind                             : Complete Main
    Default                                  : Yes
    Forced                                   : No
    Statistics Tags Issue                    : mkvmerge v15.0.0 ('Duel with the Devil') 64-bit 2018-11-25 02:05:30 / mkvmerge v15.0.0 ('Duel with the Devil') 64-bit 2018-11-25 02:05:30 / UTC 2018-11-24T04:24:27Z
    FromStats_BitRate                        : 447999
    FromStats_Duration                       : 01:34:39.857000000
    FromStats_FrameCount                     : 163074
    FromStats_StreamSize                     : 318071954

    Audio #2
    ID                                       : 3
    Format                                   : AC-3
    Format/Info                              : Audio Coding 3
    Format settings, Endianness              : Big
    Codec ID                                 : A_AC3
    Duration                                 : 1 h 34 min
    Bit rate mode                            : Constant
    Bit rate                                 : 640 kb/s
    Channel(s)                               : 6 channels
    Channel positions                        : Front: L C R, Side: L R, LFE
    Sampling rate                            : 48.0 kHz
    Frame rate                               : 31.250 FPS (1536 SPF)
    Bit depth                                : 16 bits
    Compression mode                         : Lossy
    Stream size                              : 433 MiB (12%)
    Language                                 : English
    Service kind                             : Complete Main
    Default                                  : No
    Forced                                   : No
    Statistics Tags Issue                    : mkvmerge v15.0.0 ('Duel with the Devil') 64-bit 2018-11-25 02:05:30 / mkvmerge v15.0.0 ('Duel with the Devil') 64-bit 2018-11-25 02:05:30 / UTC 2018-11-24T04:24:27Z
    FromStats_BitRate                        : 640000
    FromStats_Duration                       : 01:34:39.872000000
    FromStats_FrameCount                     : 177496
    FromStats_StreamSize                     : 454389760

    Text #1
    ID                                       : 4
    Format                                   : UTF-8
    Codec ID                                 : S_TEXT/UTF8
    Codec ID/Info                            : UTF-8 Plain Text
    Language                                 : Spanish
    Default                                  : No
    Forced                                   : No
    Statistics Tags Issue                    : mkvmerge v15.0.0 ('Duel with the Devil') 64-bit 2018-11-25 02:05:30 / mkvmerge v15.0.0 ('Duel with the Devil') 64-bit 2018-11-25 02:05:30 / UTC 2018-11-24T04:24:27Z
    FromStats_BitRate                        : 67
    FromStats_Duration                       : 01:25:01.935000000
    FromStats_FrameCount                     : 1148
    FromStats_StreamSize                     : 42747

    Text #2
    ID                                       : 5
    Format                                   : UTF-8
    Codec ID                                 : S_TEXT/UTF8
    Codec ID/Info                            : UTF-8 Plain Text
    Title                                    : Forzados
    Language                                 : Spanish
    Default                                  : Yes
    Forced                                   : Yes
    Statistics Tags Issue                    : mkvmerge v15.0.0 ('Duel with the Devil') 64-bit 2018-11-25 02:05:30 / mkvmerge v15.0.0 ('Duel with the Devil') 64-bit 2018-11-25 02:05:30 / UTC 2018-11-24T04:24:27Z
    FromStats_BitRate                        : 1
    FromStats_Duration                       : 00:57:58.854000000
    FromStats_FrameCount                     : 17
    FromStats_StreamSize                     : 457

    Menu
    00:00:00.000                             : :Chapter 1
    00:12:06.226                             : :Chapter 2
    00:24:27.925                             : :Chapter 3
    00:36:23.139                             : :Chapter 4
    00:48:42.211                             : :Chapter 5
    01:04:11.264                             : :Chapter 6
    01:17:49.665                             : :Chapter 7
    01:27:14.604                             : :Chapter 8

     

  • Peso: 3.58 GiB

Sinopsis

James Silva (Mark Wahlberg) es un experimentado agente de la CIA, enviado a un país sospechoso de actividad nuclear ilegal. Cuando el funcionario local, LI (Iko Uwais), llega a la embajada de los EE. UU. buscando intercambiar información sobre material radioactivo robado a cambio de su paso seguro a los EE. UU., Silva tiene la tarea de transportarlo desde el centro de una ciudad, en una peligrosa misión, hasta una pista de aterrizaje a 22 millas de distancia.

Ficha técnica

Video trailer de la película

Enlaces de descarga

Rip de Bluray

Descargar Milla 22 (2018) Full 1080p Latino




Aportes de DPeliculasHDmega la pass es:dpeliculashdmega.org Aportes de CinemaniaHD la pass es:cinemaniahdd.com

Películas relacionadas

  • The mule (2018) WEB-DL 1080p Latino

    2018
    The mule (2018) WEB-DL 1080p Latino

    0.0 1h 56m 2018

    A Earl Stone (Eastwood), un octogenario que está en quiebra, solo, y que se enfrenta a la ejecución...

    Director: Clint Eastwood

    Género: Crimen

    Actores: Victor Rasuk

  • Aquaman (2018) Full HD 1080p Latino

    2018
    Aquaman (2018) Full HD 1080p Latino

    5.0 2h 24m 2018

    Un icono durante más de 70 años, Aquaman (Jason Momoa) es el Rey de los Siete Mares. Este reacio gobernante...

    Director: James Wan

    Género: Acción

    Actores: Yahya Abdul-Mateen II

  • Bumblebee (2018) WEB-DL 1080p Castellano

    2018
    Bumblebee (2018) WEB-DL 1080p Castellano

    3.0 1h 54m 2018

    Sexta entrega de la saga 'Transformers', esta vez centrada en el "hermano pequeño" de los Autobots,...

    Director: Travis Knight

    Género: Acción

    Actores: Yianni Apostolopolous

  • Robin Hood (2018) 4K UHD HDR Latino

    2018
    Robin Hood (2018) 4K UHD HDR Latino

    0.0 1h 56m 2018

    Descargar Robin Hood (2018) 4K UHD HDR Latino, Mega, Google Drive. Cuando el joven Robin Hood (Taron...

    Director: Otto Bathurst

    Género: 4K HDR

    Actores: Yasen Atour

Comentarios 0